Статистика раздачи
Размер:  1,46 GB   |    Зарегистрирован:  7 месяцев 22 дня   |    Скачан:  0 раз

Полного источника не было: Никогда

 
     
 
 

serzh ®

Пол:
Не указан
Стаж:
8 месяцев 29 дней
Сообщений:
384

Замужем за мафией / Married to the Mob
«Angela always wanted to give marriage a shot»
Страна: США
Жанр: Гангстерская комедия
Год выпуска: 1988
Продолжительность: 01:44:02
Перевод: Авторский (одноголосый закадровый) Андрей Дольский
Субтитры: нет
Режиссер: Джонатан Демме / Jonathan Demme
В ролях: Мишель Пфайффер, Мэттью Модайн, Дин Стокуэлл, Мерседес Руэль, Алек Болдуин, Нэнси
Трэвис, Оливер Платт, Джоан Кьюсак, Эллен Фоли, О-Лан Джонс
Описание: Начинается все на Лонг-Айленде, где дома набиты дорогой средиземноморской мебелью, люди одеваются в дорогие костюмы в полосочку, а женщины проводят почти все время в парикмахерских. Анжеле Де Марко, жене подающего надежды гангстера Фрэнка «Огурца» Де Марко, надоела криминальная ментальность окружающих ее людей, и она хочет смены обстановки.
После того как Огурца застукал со своей любовницей и убил босс мафии Дон Тони «Тигр» Руссо, двое агентов ФБР решили, что Анжела и Тони состоят в любовной связи. Анжела вместе с сыном переезжает в квартирку на Манхэттэне, но агенты продолжают слежку, связывая уже ее деятельность с грязными делами мафии. Конечно, в соответствующий момент между Анжелой и агентом Майком Дауни вспыхивает страсть...
Доп. информация: Дорожка с А. Дольским синхронизирована и наложена ale_x2008 при помощи Adobe Audition, Sony Vegas и VirtualDubMod.
За оцифрованную с VHS дорожку благодарим - Raptorio Rio

Релиз
Сэмпл: https://yadi.sk/i/uc24GTWW3Q8k6w
Качество видео: HDRip
Формат видео: AVI
Видео: XviD build 73, 720x384 (1.88:1), 23.976 fps, 1808 kbps avg, 0.27 bit/pixel
Аудио: AC3 Dolby Digital, 48000Hz, 2/0 (L,R) ch (mono), 192 kbps avg

MediaInfo

Замужем за мафией - Married to the Mob (by ale_x2008).avi
Format : AVI
Format/Info : Audio Video Interleave
File size : 1.46 GiB
Duration : 1 h 44 min
Overall bit rate : 2 010 kb/s
Movie name : Замужем за мафией - Married to the Mob (by ale_x2008)
Director : by ale_X2008
Writing application : VirtualDubMod 1.5.10.2 (build 2540/release)
Copyright : Edich2
Comment : Rutracker.org
Video
ID : 0
Format : MPEG-4 Visual
Format profile : Advanced Simple@L5
Format settings : BVOP1 / Custom Matrix
Format settings, BVOP : 1
Format settings, QPel : No
Format settings, GMC : No warppoints
Format settings, Matrix : Custom
Codec ID : XVID
Codec ID/Hint : XviD
Duration : 1 h 44 min
Bit rate : 1 808 kb/s
Width : 720 pixels
Height : 384 pixels
Display aspect ratio : 1.85:1
Frame rate : 23.976 (24000/1001) FPS
Color space : YUV
Chroma subsampling : 4:2:0
Bit depth : 8 bits
Scan type : Progressive
Compression mode : Lossy
Bits/(Pixel*Frame) : 0.273
Stream size : 1.31 GiB (90%)
Writing library : XviD 73
Audio
ID : 1
Format : AC-3
Format/Info : Audio Coding 3
Codec ID : 2000
Duration : 1 h 44 min
Bit rate mode : Constant
Bit rate : 192 kb/s
Channel(s) : 2 channels
Channel positions : Front: L R
Sampling rate : 48.0 kHz
Frame rate : 31.250 FPS (1536 SPF)
Bit depth : 16 bits
Compression mode : Lossy
Stream size : 143 MiB (10%)
Alignment : Split accross interleaves
Interleave, duration : 42 ms (1.00 video frame)
Interleave, preload duratio : 500 ms
Service kind : Complete Main

Скриншоты



[cybertorrent.net].t2126.torrent 
Торрент: Зарегистрирован [ 2019-04-17 17:05 ] · 279625EE1B7C946010D2D8647A13D777AB708F46

Скачать .torrent

Скачать

15 KB

Статус: проверено
Скачан: 0 раз
Размер: 1,46 GB
terms.php
Профиль [ЛС]
Показать сообщения:    

Текущее время: 10-Дек 16:06

Часовой пояс: UTC ± 0



Вы не можете начинать темы
Вы не можете отвечать на сообщения
Вы не можете редактировать свои сообщения
Вы не можете удалять свои сообщения
Вы не можете голосовать в опросах
Вы не можете прикреплять файлы к сообщениям
Вы можете скачивать файлы