Статистика раздачи
Размер:  1,46 GB   |    Зарегистрирован:  6 месяцев 1 день   |    Скачан:  0 раз
Сидов:  199  [  0 KB/s  ]   Личеров:  6  [  0 KB/s  ]  
   
 

karlll ®

Пол:
Не указан
Стаж:
7 месяцев 6 дней
Сообщений:
171

ЛЕГО Фильм-2 / The Lego Movie 2: The Second Part
«Они придут с миром»
- Год выхода: 2019
Страна: Дания, Норвегия, Австралия, США
Жанр: мультфильм, мюзикл, фэнтези, боевик, комедия, приключения, семейный
Продолжительность: 01:47:05
Перевод: Профессиональный (полное дублирование)
Субтитры: Русские (форсированные) (внешние *.srt)-Режиссер:
Майк Митчелл / Mike Mitchell-В ролях:
Крис Пратт, Элизабет Бэнкс, Уилл Арнетт, Тиффани Хэддиш, Стефани Беатриз, Элисон Бри, Ник Офферман, Чарли Дэй, Майя Рудольф, Уилл Феррелл-О фильме:
Прошло пять лет с тех пор, как все было прекрасно, и теперь жители пластмассового мира столкнулись с новой невероятной угрозой — вторженцами LEGO DUPLO®, прибывшими из космоса и разрушающими всё на своем пути куда быстрее, чем герои могут построить вновь. В результате жёлтым человечкам приходится жить в мрачной постапокалиптике, но Эммет этого не замечает и продолжает радоваться жизни. Однажды появляется неуязвимый корабль-разведчик и утаскивает с собой выдающихся, по его мнению, героев — Люсю в том числе. Чтобы спасти друзей и восстановить гармонию во вселенной ЛЕГО, Эммет отправляется в необыкновенную галактику, где правит постоянно меняющая форму Королева, и всегда царит музыка.-Релиз групп | | IMDB | КиноПоиск | Сэмпл |-Качество: WEB-DLRip
Формат: AVI
Видео: 720x304 (2.37:1), 23.976 fps, XviD build 67 ~1554 kbps avg, 0.30 bit/pixel
Аудио: 48 kHz, AC3 Dolby Digital, 3/2 (L,C,R,l,r) + LFE ch, ~384 kbps avg - iTunes Russia-

Скриншоты

-

MediaInfo

Код:Полное имя : D:\LEGO_Film_2_2019_WEB-DLRip_iT_by_Dalemake.avi
Формат : AVI
Формат/Информация : Audio Video Interleave
Размер файла : 1,46 Гбайт
Продолжительность : 1 ч. 47 м.
Общий поток : 1948 Кбит/сек
Программа кодирования : VirtualDubMod 1.5.10.3 | www.virtualdub-fr.org || (build 2550/release)
Библиотека кодирования : VirtualDubMod build 2550/release
Видео
Идентификатор : 0
Формат : MPEG-4 Visual
Профиль формата : Advanced Simple@L5
Параметр BVOP формата : 1
Параметр QPel формата : Нет
Параметр GMC формата : Без точки перехода
Параметр матрицы формата : Выборочная
Идентификатор кодека : XVID
Идентификатор кодека/Подсказка : XviD
Продолжительность : 1 ч. 47 м.
Битрейт : 1554 Кбит/сек
Ширина : 720 пикселей
Высота : 304 пикселя
Соотношение сторон : 2,35:1
Частота кадров : 23,976 кадра/сек
Цветовое пространство : YUV
Субдискретизация насыщенности : 4:2:0
Битовая глубина : 8 бит
Тип развёртки : Прогрессивная
Метод сжатия : С потерями
Бит/(Пиксели*Кадры) : 0.296
Размер потока : 1,16 Гбайт (80%)
Библиотека кодирования : XviD 67
Аудио
Идентификатор : 1
Формат : AC-3
Формат/Информация : Audio Coding 3
Расширение режима : CM (complete main)
Параметр Endianness формата : Big
Идентификатор кодека : 2000
Продолжительность : 1 ч. 47 м.
Вид битрейта : Постоянный
Битрейт : 384 Кбит/сек
Каналы : 6 каналов
Расположение каналов : Front: L C R, Side: L R, LFE
Частота : 48,0 КГц
Метод сжатия : С потерями
Размер потока : 294 Мбайт (20%)
Выравнивание : Разделение по промежуткам
Продолжительность промежутка : 42 мс. (1,00 видеокадр)
Время предзагрузки промежутка : 500 мс.
-
[cybertorrent.net].t2123.torrent 
Торрент: Зарегистрирован [ 2019-04-17 17:05 ] · 3EF18A743BC26F597901FA01ACBD63BFC050CE41

Скачать .torrent

Скачать

15 KB

Статус: проверено
Скачан: 0 раз
Размер: 1,46 GB
terms.php
Профиль ЛС
Показать сообщения:    

Текущее время: 19-Окт 09:20

Часовой пояс: UTC ± 0



Вы не можете начинать темы
Вы не можете отвечать на сообщения
Вы не можете редактировать свои сообщения
Вы не можете удалять свои сообщения
Вы не можете голосовать в опросах
Вы не можете прикреплять файлы к сообщениям
Вы можете скачивать файлы