Статистика раздачи
Скачал: [ 1 ]
Размер:  1,42 GB   |    Зарегистрирован:  7 дней   |    Скачан:  1 раз

Полного источника не было: 6 дней

 
     
 
 

MAGNAT ®

Пол:
Мужской
Стаж:
1 год 3 месяца
Сообщений:
8775

-Евровидение: История огненной саги / Eurovision Song Contest: The Story of Fire Saga-- -Страна: США
Жанр: комедия, музыка
Год выпуска: 2020
Продолжительность: 02:03:00-Перевод: Профессиональный (дублированный) Пифагор
Субтитры: русские (форсированные)
Оригинальная аудиодорожка: нет-Режиссер: Дэвид Добкин / David Dobkin-В ролях: Уилл Феррелл, Рэйчел МакАдамс, Натасия Деметриу, Пирс Броснан, Дэн Стивенс, Деми Ловато, Йоуханнес Хёйкьюр Йоуханнессон, Джэми Деметриу, Оулавюр Дарри Оулафссон-Описание: Исландские музыканты Ларс Эрикссон и Сигрит Эриксдоттер мечтают победить на знаменитом международном конкурсе эстрадной песни. Они готовы идти до конца и для достижения заветной цели не остановятся ни перед чем.
Качество видео: WEB-DLRip-AVC /
Формат видео: MKV-Видео: MPEG-4 AVC, 834x450 (1.85:1), 24.000 fps, ~1233 kbps avg, 0.137 bit/pixel
Аудио: 48 kHz, AC3 Dolby Digital, 3/2 (L,C,R,l,r) + LFE ch, ~384 kbps avg-

MediaInfo

Код:
Complete name : D:\Раздача\Евровидение История огненной саги (2020) WEB-DLRip-AVC_ivanes.mkv
Format : Matroska
Format version : Version 2
File size : 1.42 GiB
Duration : 2 h 3 min
Overall bit rate : 1 650 kb/s
Movie name : Евровидение История огненной саги (2020) WEB-DLRip-AVC_ivanes
Encoded date : UTC 2020-06-26 18:23:28
Writing application : mkvmerge v4.4.0 ('Die Wiederkehr') сборка от Jan 3 2011 21:40:45
Writing library : libebml v1.0.0 + libmatroska v1.0.0
Cover : Yes
Attachments : cover.jpg
Video
ID : 1
Format : AVC
Format/Info : Advanced Video Codec
Format profile : High@L4.1
Format settings : CABAC / 12 Ref Frames
Format settings, CABAC : Yes
Format settings, Reference : 12 frames
Codec ID : V_MPEG4/ISO/AVC
Duration : 2 h 3 min
Bit rate : 1 233 kb/s
Width : 834 pixels
Height : 450 pixels
Display aspect ratio : 1.85:1
Frame rate mode : Constant
Frame rate : 24.000 FPS
Color space : YUV
Chroma subsampling : 4:2:0
Bit depth : 8 bits
Scan type : Progressive
Bits/(Pixel*Frame) : 0.137
Stream size : 1.06 GiB (75%)
Title : Rip by ivanes
Writing library : x264 core 160 r3000 33f9e14
Encoding settings : cabac=1 / ref=12 / deblock=1:-3:-2 / analyse=0x3:0x113 / me=umh / subme=10 / psy=1 / psy_rd=1.00:0.00 / mixed_ref=1 / me_range=32 / chroma_me=1 / trellis=2 / 8x8dct=1 / cqm=0 / deadzone=21,11 / fast_pskip=0 / chroma_qp_offset=-2 / threads=12 / lookahead_threads=3 / sliced_threads=0 / nr=0 / decimate=1 / interlaced=0 / bluray_compat=0 / constrained_intra=0 / bframes=13 / b_pyramid=2 / b_adapt=2 / b_bias=0 / direct=1 / weightb=1 / open_gop=0 / weightp=2 / keyint=240 / keyint_min=24 / scenecut=40 / intra_refresh=0 / rc_lookahead=60 / rc=crf / mbtree=1 / crf=21.4 / qcomp=0.65 / qpmin=0 / qpmax=69 / qpstep=4 / vbv_maxrate=50000 / vbv_bufsize=62500 / crf_max=0.0 / nal_hrd=none / filler=0 / ip_ratio=1.40 / aq=1:1.00
Default : Yes
Forced : No
Statistics Tags Issue : mkvmerge v29.0.0 ('Like It Or Not') 64-bit 2020-06-26 18:21:57 / mkvmerge v4.4.0 ('Die Wiederkehr') сборка от Jan 3 2011 21:40:45 2020-06-26 18:23:28
FromStats_BitRate : 1263704
FromStats_Duration : 02:03:34.875000000
FromStats_FrameCount : 177957
FromStats_StreamSize : 1171276702
Audio
ID : 2
Format : AC-3
Format/Info : Audio Coding 3
Commercial name : Dolby Digital
Codec ID : A_AC3
Duration : 2 h 3 min
Bit rate mode : Constant
Bit rate : 384 kb/s
Channel(s) : 6 channels
Channel layout : L R C LFE Ls Rs
Sampling rate : 48.0 kHz
Frame rate : 31.250 FPS (1536 SPF)
Compression mode : Lossy
Stream size : 339 MiB (23%)
Title : Пифагор
Language : Russian
Service kind : Complete Main
Default : Yes
Forced : No
Text
ID : 3
Format : UTF-8
Codec ID : S_TEXT/UTF8
Codec ID/Info : UTF-8 Plain Text
Title : Forced
Language : Russian
Default : Yes
Forced : No

Скриншоты

[cybertorrent.net].t21153.torrent 
Торрент: Зарегистрирован [ 2020-06-28 08:14 ] · B57C229A7F80B012C1820BBA53D42EC609A224C3

Скачать .torrent

Скачать

15 KB

Статус: проверено
Скачан: 1 раз
Размер: 1,42 GB  ·  Тип торрента
terms.php
Профиль [ЛС]
Показать сообщения:    

Текущее время: 05-Июл 10:09

Часовой пояс: UTC ± 0



Вы не можете начинать темы
Вы не можете отвечать на сообщения
Вы не можете редактировать свои сообщения
Вы не можете удалять свои сообщения
Вы не можете голосовать в опросах
Вы не можете прикреплять файлы к сообщениям
Вы можете скачивать файлы