Статистика раздачи
Размер:  745 MB   |    Зарегистрирован:  3 месяца 25 дней   |    Скачан:  0 раз
DL-List: Нет

Полного источника не было: Никогда

 
     
 
 

MAGNAT ®

Пол:
Мужской
Стаж:
1 год 6 месяцев
Сообщений:
9039

Охота на ведьм в Салеме
Hexenjagd in Salem- Дата/Год выпуска: 2017
Страна: Германия
Жанр: документально-игровой, исторический
Продолжительность: 00:51:55
Перевод: Профессиональный (двухголосый закадровый) Компания "Видеофильм ТВ"
Русские субтитры: нет
Оригинальная аудиодорожка: нет
Режиссер: Фелицитас Хаммерштайн / Felicitas Hammerstein, Вольф фон Труксес / Wolf von Truchsess
Телеканал: История
Описание: Охота на салемских ведьм — одна из самых знаменитых охот на ведьм в истории: судебный процесс, проходивший в новоанглийском городе Салем с февраля 1692 по май 1693 года. Городе Салем был основан выходцами из Англии в 1629 году. Это были религиозные пуритане, ревностно оберегающие вековые традиции и ценности. Люди предпочитали видеть причины своих бед и несчастий не в собственных ошибках, а во вмешательстве тёмных сил. Несмотря на то, что Салем территориально находился в Америке, менталитет его жителей полностью соответствовал типичной европейской средневековой стране.
качество: SATRip-AVC
формат: MKV
Видео: AVC (H.264), 712x384 (1.85:1), 25 fps, ~1845 kbps avg, 0.270 bit/pixel
Аудио: MPEG Audio 2, 2 ch, 48 kHz, ~160.00 kbps avg - русский

MediaInfo

General
Unique ID : 190074477557741871036844524764779440982 (0x8EFF0346CF4DA1F1F8A224DD9A22EB56)
Complete name : [apreder]Hexenjagd_in_Salem(2017)SATRip.mkv
Format : Matroska
Format version : Version 2
File size : 745 MiB
Duration : 51 min 55 s
Overall bit rate : 2 007 kb/s
Movie name : Hexenjagd in Salem
Released date : 2017-09-23
Encoded date : UTC 2020-04-02 06:50:28
Writing application : mkvmerge v44.0.0 ('Domino') 64-bit
Writing library : libebml v1.3.10 + libmatroska v1.5.2
Cover : Yes
Attachments : cover.jpg / small_cover.jpg
DIRECTOR : Felicitas Hammerstein, Wolf von Truchsess
GENRE : Documentary
IMDB : tt7944672
KEYWORDS : rutracker.org
LAW_RATING : 16+
Video
ID : 1
Format : AVC
Format/Info : Advanced Video Codec
Format profile : High@L4.1
Format settings : CABAC / 9 Ref Frames
Format settings, CABAC : Yes
Format settings, Reference frames : 9 frames
Codec ID : V_MPEG4/ISO/AVC
Duration : 51 min 55 s
Bit rate : 1 845 kb/s
Width : 712 pixels
Height : 384 pixels
Display aspect ratio : 1.85:1
Frame rate mode : Constant
Frame rate : 25.000 FPS
Color space : YUV
Chroma subsampling : 4:2:0
Bit depth : 8 bits
Scan type : Progressive
Bits/(Pixel*Frame) : 0.270
Stream size : 671 MiB (90%)
Writing library : x264 core 159 r2991 1771b55
Encoding settings : cabac=1 / ref=9 / deblock=1:-1:-1 / analyse=0x3:0x133 / me=umh / subme=10 / psy=1 / psy_rd=1.00:0.15 / mixed_ref=1 / me_range=24 / chroma_me=1 / trellis=2 / 8x8dct=1 / cqm=0 / deadzone=21,11 / fast_pskip=1 / chroma_qp_offset=-3 / threads=12 / lookahead_threads=2 / sliced_threads=0 / nr=0 / decimate=1 / interlaced=0 / bluray_compat=0 / constrained_intra=0 / bframes=8 / b_pyramid=2 / b_adapt=2 / b_bias=0 / direct=3 / weightb=1 / open_gop=0 / weightp=2 / keyint=250 / keyint_min=25 / scenecut=40 / intra_refresh=0 / rc_lookahead=60 / rc=2pass / mbtree=1 / bitrate=1845 / ratetol=1.0 / qcomp=0.60 / qpmin=0 / qpmax=69 / qpstep=4 / cplxblur=20.0 / qblur=0.5 / vbv_maxrate=62500 / vbv_bufsize=78125 / nal_hrd=none / filler=0 / ip_ratio=1.40 / aq=1:1.00
Default : Yes
Forced : No
Audio
ID : 2
Format : MPEG Audio
Format version : Version 1
Format profile : Layer 2
Codec ID : A_MPEG/L2
Codec ID/Hint : MP2
Duration : 51 min 55 s
Bit rate mode : Constant
Bit rate : 160 kb/s
Channel(s) : 2 channels
Sampling rate : 48.0 kHz
Compression mode : Lossy
Stream size : 59.4 MiB (8%)
Language : Russian
Default : Yes
Forced : No

Скриншоты


Резервные скриншоты


-
[cybertorrent.net].t21146.torrent 
Торрент: Зарегистрирован [ 2020-06-25 19:13 ] · 69C27BB657E10ACA14E7F4F8DF6CE074D723BD02

Скачать .torrent

Скачать

8 KB

Статус: проверено
Скачан: 0 раз
Размер: 745 MB  ·  Тип торрента
terms.php
Профиль [ЛС]
Показать сообщения:    

Текущее время: 20-Окт 23:18

Часовой пояс: UTC ± 0



Вы не можете начинать темы
Вы не можете отвечать на сообщения
Вы не можете редактировать свои сообщения
Вы не можете удалять свои сообщения
Вы не можете голосовать в опросах
Вы не можете прикреплять файлы к сообщениям
Вы можете скачивать файлы