Статистика раздачи
Размер:  1,22 GB   |    Зарегистрирован:  6 месяцев 24 дня   |    Скачан:  0 раз

Полного источника не было: Никогда

 
     
 
 

Гость ®

Пол:
Не указан

Американский соул / American Soul
Год выпуска: 2019
Страна: США
Жанр: биография
Продолжительность: ~ 00:40:00
Перевод: Любительский (многоголосый закадровый)(TVShows)
Субтитры: нет
Режиссёр: Питер О’Фаллон / Peter O’Fallon
-В ролях:
Синква Уоллс, Джейсон Дирден, Джим Девоти, Перри Кэмпер, Алекса Уитакер, Филлип Маллингс мл., Индия МакГи, Янта Ричардсон, Кристофер Джефферсон, Джелани Уинстон
Описание:
Биографический сериал рассказывает о личной и профессиональной жизни американского антрепренёра, продюсера и телеведущего Дона Корнелиуса. В 1971 году с его подачи на американском телевидении появилась музыкальная программа Soul Train, в эфире которой транслировались выступления исполнителей разных музыкальных жанров: ритм-н-блюз, соул и хип-хоп, иногда фанк, джаз, диско и госпел. Шоу выходило в эфир до 2006 года, к тому моменту было снято более 1 100 выпусков.-Качество: WEBRip
Формат: AVI
Видео кодек: XviD
Видео: 720x400 (1.80:1), 23.976 fps, XviD build 73 ~2000 kbps avg, 0.29 bit/pixel
Аудио Rus: 48 kHz, AC3 Dolby Digital, 2/0 (L,R) ch, ~192 kbps
-Рип: Ruddle
Реклама отсутствует
- -Все раздачи сериала-

MI

Код:Общее
Полное имя : D:\American Soul Season 1 WEBRip\American.Soul.s01e01.WEBRip.RGzsRutracker.avi
Формат : AVI
Формат/Информация : Audio Video Interleave
Размер файла : 633 Мбайт
Продолжительность : 40 м. 0 с.
Общий поток : 2211 Кбит/сек
Программа кодирования : VirtualDubMod 1.5.10.3 | www.virtualdub-fr.org || (build 2550/release)
Библиотека кодирования : VirtualDubMod build 2550/release
Видео
Идентификатор : 0
Формат : MPEG-4 Visual
Профиль формата : Advanced Simple@L5
Настройки формата : BVOP2
Параметр BVOP формата : 2
Параметр QPel формата : Нет
Параметр GMC формата : Без точки перехода
Параметр матрицы формата : Default (MPEG)
Идентификатор кодека : XVID
Идентификатор кодека/Подсказка : XviD
Продолжительность : 40 м. 0 с.
Битрейт : 2009 Кбит/сек
Ширина : 720 пикселей
Высота : 400 пикселей
Соотношение сторон : 16:9
Частота кадров : 23,976 (24000/1001) кадра/сек
Частота кадров в оригинале : 23,976 (23976/1000) кадра/сек
Цветовое пространство : YUV
Субдискретизация насыщенности : 4:2:0
Битовая глубина : 8 бит
Тип развёртки : Прогрессивная
Метод сжатия : С потерями
Бит/(Пиксели*Кадры) : 0.291
Размер потока : 575 Мбайт (91%)
Библиотека кодирования : XviD 73
Аудио
Идентификатор : 1
Формат : AC-3
Формат/Информация : Audio Coding 3
Идентификатор кодека : 2000
Продолжительность : 40 м. 0 с.
Вид битрейта : Постоянный
Битрейт : 192 Кбит/сек
Каналы : 2 канала
Расположение каналов : Front: L R
Частота : 48,0 КГц
Частота кадров : 31,250 кадров/сек (1536 SPF)
Битовая глубина : 16 бит
Метод сжатия : С потерями
Размер потока : 54,9 Мбайт (9%)
Выравнивание : Разделение по промежуткам
Продолжительность промежутка : 42 мс. (1,00 видеокадр)
Время предзагрузки промежутка : 500 мс.
ServiceKind/String : Complete Main

Скриншоты

Внимание! Раздача ведётся путём добавления новых серий!

Внимание! Раздача ведётся путём добавления новых серий; при каждом добавлении создётся новый торрент. Чтобы начать докачку новой серии, пользователям необходимо сделать следующее: (1) остановить скачивание, (2) удалить старый торрент у себя из клиента (старые серии удалять не надо), (3) скачать новый торрент и запустить его у себя в клиенте вместо старого, при этом указать клиенту путь в старую папку куда и должно происходить скачивание новых серий.
Ваш клиент при этом должен произвести хеширование (проверку) старой папки (если не производит сам - помогите ему сделать это), и будет докачивать только те серии которых у вас ещё нет. Старые серии при этом не удаляются, а продолжают раздаваться!
Eсли вы уже удалили старые серии, то предотвратить повторную закачку старых серий можно, отжав галочку в соответсвующих местах при запуске нового торрента.
Как закачать отдельный файл из торрента или докачать ранее пропущенные файлы торрента!
Релиз группы:
[cybertorrent.net].t2110.torrent 
Торрент: Зарегистрирован [ 2019-04-17 17:05 ] · 116940859E6675D422B96FDF0CBC51CFE667AE55

Скачать .torrent

Скачать

13 KB

Статус: проверено
Скачан: 0 раз
Размер: 1,22 GB
terms.php
Показать сообщения:    

Текущее время: 12-Ноя 06:43

Часовой пояс: UTC ± 0



Вы не можете начинать темы
Вы не можете отвечать на сообщения
Вы не можете редактировать свои сообщения
Вы не можете удалять свои сообщения
Вы не можете голосовать в опросах
Вы не можете прикреплять файлы к сообщениям
Вы можете скачивать файлы