Статистика раздачи
Размер:  85 MB   |    Зарегистрирован:  6 месяцев 26 дней   |    Скачан:  0 раз

Полного источника не было: Никогда

 
     
 
 

Гость ®

Пол:
Не указан

Кто там?
Страна: СССР
Жанр: авторская анимация, экранизация
Год выпуска: 1990
Продолжительность: 00:09:56
Перевод: не требуется
Субтитры: нет
Режиссёр: Владимир Самсонов
Описание: По мотивам рассказов Даниила Хармса.
Однажды вечером мама, папа и прислуга по названию Наташа сидели за столом и пили...
Качество видео: WEBRip
Формат видео: AVI
Видео: 1059 kbps, 640х480 (4:3), 25.000 fps, MPEG-4 Visual (XviD)
Аудио: 128 kbps, 44.1 kHz, 2 channels, MPEG Audio (MP3)

MediaInfo

General
Complete name : Кто там (1990).avi
Format : AVI
Format/Info : Audio Video Interleave
File size : 85.3 MiB
Duration : 9mn 56s
Overall bit rate : 1 199 Kbps
Writing application : Lavf55.19.104
Video
ID : 0
Format : MPEG-4 Visual
Format profile : Simple@L3
Format settings, BVOP : No
Format settings, QPel : No
Format settings, GMC : No warppoints
Format settings, Matrix : Default (H.263)
Codec ID : XVID
Codec ID/Hint : XviD
Duration : 9mn 56s
Bit rate : 1 059 Kbps
Width : 640 pixels
Height : 480 pixels
Display aspect ratio : 4:3
Frame rate : 25.000 fps
Color space : YUV
Chroma subsampling : 4:2:0
Bit depth : 8 bits
Scan type : Progressive
Compression mode : Lossy
Bits/(Pixel*Frame) : 0.138
Stream size : 75.3 MiB (88%)
Writing library : XviD 73
Audio
ID : 1
Format : MPEG Audio
Format version : Version 1
Format profile : Layer 3
Mode : Joint stereo
Mode extension : MS Stereo
Codec ID : 55
Codec ID/Hint : MP3
Duration : 9mn 56s
Bit rate mode : Constant
Bit rate : 128 Kbps
Channel(s) : 2 channels
Sampling rate : 44.1 KHz
Compression mode : Lossy
Stream size : 9.10 MiB (11%)
Alignment : Aligned on interleaves
Interleave, duration : 26 ms (0.65 video frame)
Writing library : LAME3.99

Скриншот c названием фильма

Скриншоты

[cybertorrent.net].t2105.torrent 
Торрент: Зарегистрирован [ 2019-04-17 17:05 ] · 2B8745ABC1534BC91FA5E4366E1616973E3E1129

Скачать .torrent

Скачать

14 KB

Статус: проверено
Скачан: 0 раз
Размер: 85 MB
terms.php
Показать сообщения:    

Текущее время: 14-Ноя 04:13

Часовой пояс: UTC ± 0



Вы не можете начинать темы
Вы не можете отвечать на сообщения
Вы не можете редактировать свои сообщения
Вы не можете удалять свои сообщения
Вы не можете голосовать в опросах
Вы не можете прикреплять файлы к сообщениям
Вы можете скачивать файлы