Статистика раздачи
Размер:  5,49 GB   |    Зарегистрирован:  13 дней   |    Скачан:  0 раз
DL-List: Нет

Полного источника не было: Никогда

 
     
 
 

MAGNAT ®

Пол:
Мужской
Стаж:
1 год 3 месяца
Сообщений:
8775

NASCAR Cup Series 2020. Этап 08. Alsco Uniforms 500. МАТЧ! Арена HD
Вид спорта: Автоспорт
Описание: 8 этап NASCAR Cup Series 2020 на трассе Charlotte Motor Speedway.
Автор рипа/записи: Ales
Качество: DVB-S2 Rip 720P
Формат видео: MKV
Видео: H264, 1280x720P, 50 кадр/c, 4 000 kb/s
Аудио: MP2 2.0, 48.0 KHz, 192 kb/s
Язык комментариев:
  • Русский (Владимир Башмаков и Алексей Попов)
    Дата/Год выпуска: 28.05.2020

    Продолжительность

    3:07:45

    Скриншоты

    MediaInfo

    General
    Unique ID : 264640482285133568365106526163761453991 (0xC717E7269E017444F16F51F64FDD5BA7)
    Complete name : F:\NCS_NASCAR_2020_RUS_720P\NASCAR.Cup.Series.2020.R08.Alsco.Uniforms.500.Матч!Арена.720P.Rus.mkv
    Format : Matroska
    Format version : Version 4
    File size : 5.49 GiB
    Duration : 3 h 7 min
    Overall bit rate : 4 186 kb/s
    Writing application : Lavf58.26.101
    Writing library : Lavf58.26.101
    ErrorDetectionType : Per level 1
    Video
    ID : 1
    Format : AVC
    Format/Info : Advanced Video Codec
    Format profile : High@L3.2
    Format settings : CABAC / 4 Ref Frames
    Format settings, CABAC : Yes
    Format settings, Reference frames : 4 frames
    Codec ID : V_MPEG4/ISO/AVC
    Duration : 3 h 7 min
    Bit rate : 4 000 kb/s
    Width : 1 280 pixels
    Height : 720 pixels
    Display aspect ratio : 16:9
    Frame rate mode : Constant
    Frame rate : 50.000 FPS
    Color space : YUV
    Chroma subsampling : 4:2:0
    Bit depth : 8 bits
    Scan type : Progressive
    Bits/(Pixel*Frame) : 0.087
    Stream size : 5.13 GiB (93%)
    Writing library : x264 core 157 r2935 545de2f
    Encoding settings : cabac=1 / ref=3 / deblock=1:0:0 / analyse=0x3:0x113 / me=hex / subme=7 / psy=1 / psy_rd=1.00:0.00 / mixed_ref=1 / me_range=16 / chroma_me=1 / trellis=1 / 8x8dct=1 / cqm=0 / deadzone=21,11 / fast_pskip=1 / chroma_qp_offset=-2 / threads=22 / lookahead_threads=3 / sliced_threads=0 / nr=0 / decimate=1 / interlaced=0 / bluray_compat=0 / constrained_intra=0 / bframes=3 / b_pyramid=2 / b_adapt=1 / b_bias=0 / direct=1 / weightb=1 / open_gop=0 / weightp=2 / keyint=250 / keyint_min=25 / scenecut=40 / intra_refresh=0 / rc_lookahead=40 / rc=abr / mbtree=1 / bitrate=4000 / ratetol=1.0 / qcomp=0.60 / qpmin=0 / qpmax=69 / qpstep=4 / ip_ratio=1.40 / aq=1:1.00
    Default : Yes
    Forced : No
    Audio
    ID : 2
    Format : MPEG Audio
    Format version : Version 1
    Format profile : Layer 2
    Codec ID : A_MPEG/L2
    Codec ID/Hint : MP2
    Duration : 3 h 7 min
    Bit rate mode : Constant
    Bit rate : 192 kb/s
    Channel(s) : 2 channels
    Sampling rate : 48.0 kHz
    Compression mode : Lossy
    Stream size : 258 MiB (5%)
    Language : Russian
    Default : Yes
    Forced : No
    [cybertorrent.net].t20954.torrent 
    Торрент: Зарегистрирован [ 2020-06-21 13:47 ] · B8F6B53ABD647A3F9C5BDBFF22166E3731747A4D

    Скачать .torrent

    Скачать

    56 KB

    Статус: проверено
    Скачан: 0 раз
    Размер: 5,49 GB  ·  Тип торрента
    terms.php
  • Профиль [ЛС]
    Показать сообщения:    

    Текущее время: 05-Июл 09:38

    Часовой пояс: UTC ± 0



    Вы не можете начинать темы
    Вы не можете отвечать на сообщения
    Вы не можете редактировать свои сообщения
    Вы не можете удалять свои сообщения
    Вы не можете голосовать в опросах
    Вы не можете прикреплять файлы к сообщениям
    Вы можете скачивать файлы