Статистика раздачи
Размер:  1,36 GB   |    Зарегистрирован:  8 месяцев 23 дня   |    Скачан:  0 раз

Полного источника не было: Никогда

 
     
 
 

Гость ®

Пол:
Не указан

Арифметика любви
Жанр: мелодрама, драма, экранизация
Год выпуска: 1986
Продолжительность: 01:15:02
Режиссёр: Олег Николаевский
В ролях: Николай Смирнов (II), Наталья Егорова, Александр Шергин, Лидия Ежевская, Елена Козлитина, Геннадий Сайфулин, Капитолина Ламочкина, Сергей Баталов, Олег Николаевский, Валерий Лысенков, Александр Ольков, Александр Фукалов, Ольга Дроздова, Серафим Зайцев, Людмила Липатникова, Елена Орлова
Описание: По одноименной повести Вячеслава Шугаева. Немало поколесив по стране, монтажник Иван Митюшкин приезжает на работу в небольшой таежный поселок Гари в Свердловской области. Парень решает бросить якорь в тихой гавани и зажить спокойной семейной жизнью. Иван влюбляется в молодую вдову Татьяну и хочет на ней жениться. Митюшкину удается расположить к себе шестилетнего сына любимой и даже подружиться с мальчуганом. Однако женщина не идет на контакт. Дело в том, что Татьяна никак не может забыть погибшего мужа, которого сильно любила. Удастся ли Ивану завоевать сердце отчаявшейся вдовы?
Доп. информация: Автор релиза -
Источник для рипа - DVB 576i MPG от galebcev (запись с т/к "Первый-Европа")




Рекламы нет!
Качество видео: SATRip
Формат видео: AVI
Видео: XviD, 720x528 (4:3), 2399 kbps, 25.000 fps, 0.252 bit/pixel
Аудио: Русский АC3, 48000 Гц, 2ch, 192 kbps

MediaInfo

Общее
Полное имя : D:\Арифметика.любви.1986.SATRip-ylnian.avi
Формат : AVI
Формат/Информация : Audio Video Interleave
Размер файла : 1,36 Гбайт
Продолжительность : 1 ч. 15 м.
Общий поток : 2601 Кбит/сек
Программа кодирования : VirtualDubMod 1.5.10.3 | www.virtualdub-fr.org || (build 2550/release)
Библиотека кодирования : VirtualDubMod build 2550/release
Видео
Идентификатор : 0
Формат : MPEG-4 Visual
Профиль формата : Advanced Simple@L5
Настройки формата : BVOP1 / Custom Matrix
Параметр BVOP формата : 1
Параметр QPel формата : Нет
Параметр GMC формата : Без точки перехода
Параметр матрицы формата : Выборочная
Идентификатор кодека : XVID
Идентификатор кодека/Подсказка : XviD
Продолжительность : 1 ч. 15 м.
Битрейт : 2399 Кбит/сек
Ширина : 720 пикселей
Высота : 528 пикселей
Соотношение сторон : 4:3
Частота кадров : 25,000 кадров/сек
Цветовое пространство : YUV
Субдискретизация насыщенности : 4:2:0
Битовая глубина : 8 бит
Тип развёртки : Прогрессивная
Метод сжатия : С потерями
Бит/(Пиксели*Кадры) : 0.252
Размер потока : 1,26 Гбайт (92%)
Библиотека кодирования : XviD 67
Аудио
Идентификатор : 1
Формат : AC-3
Формат/Информация : Audio Coding 3
Коммерческое название : Dolby Digital
Идентификатор кодека : 2000
Продолжительность : 1 ч. 15 м.
Вид битрейта : Постоянный
Битрейт : 192 Кбит/сек
Каналы : 2 канала
Channel layout : L R
Частота : 48,0 КГц
Частота кадров : 31,250 кадров/сек (1536 SPF)
Битовая глубина : 16 бит
Метод сжатия : С потерями
Размер потока : 103 Мбайт (7%)
Выравнивание : Разделение по промежуткам
Продолжительность промежутка : 40 мс. (1,00 видеокадр)
Время предзагрузки промежутка : 500 мс.
ServiceKind/String : Complete Main
[cybertorrent.net].t209.torrent 
Торрент: Зарегистрирован [ 2019-03-18 10:04 ] · 4502BB982C79EF2763EA13878F708A910EC47E24

Скачать .torrent

Скачать

14 KB

Статус: проверено
Скачан: 0 раз
Размер: 1,36 GB
terms.php
Показать сообщения:    

Текущее время: 11-Дек 07:07

Часовой пояс: UTC ± 0



Вы не можете начинать темы
Вы не можете отвечать на сообщения
Вы не можете редактировать свои сообщения
Вы не можете удалять свои сообщения
Вы не можете голосовать в опросах
Вы не можете прикреплять файлы к сообщениям
Вы можете скачивать файлы