Статистика раздачи
Размер:  1,45 GB   |    Зарегистрирован:  7 месяцев   |    Скачан:  0 раз

Полного источника не было: Никогда

 
     
 
 

serzh ®

Пол:
Не указан
Стаж:
8 месяцев 4 дня
Сообщений:
384

Неоновая империя / Земли гангстеров / The Neon Empire
Страна: США
Жанр: Драма
Год выпуска: 1989
Продолжительность: 01:56:58
Перевод: Авторский (одноголосый закадровый) Сергея Визгунова
Субтитры: нет
Режиссер: Ларри Пирс /Larry Peerce/
В ролях: Рэй Шарки
Гэри Бьюзи
Линда Фиорентино
Дилан МакДермотт
Мартин Ландау
Джули Кармен
Гарри Гуардино
Майкл Зелникер
Ричард Брукс
Андреас Кацулас
Описание: Действие фильма разворачивается в Нью-Йорке в 40-х годах прошлого века. С целью создания первого казино в Лас-Вегасе, туда отправляется одна из гангстерских группировок… Прототипами главных героев являются знаменитый в криминальных кругах своего времени Бенджамин Сигел и его возлюбленная Вирджиния Хилл.
Доп. информация: Собственная оцифровка с VHS
Сэмпл: https://yadi.sk/i/URVDeni_--I17w
Качество видео: VHSRip
Формат видео: AVI
Видео: Xvid MPEG-4 , 704x528 (1.33:1) , 25.000 fps , 1 577 Kbps
Аудио: AC3 , 48 kHz , 192.00 kbps avg , 2/0 (L,R) ch

MediaInfo

Complete name Неоновая империя - 1989 (Vizgunov).avi
Format : AVI
Format/Info : Audio Video Interleave
File size : 1.45 GiB
Duration : 1h 56mn
Overall bit rate : 1 779 Kbps
Writing library : VirtualDub build 35491/release
Video
ID : 0
Format : MPEG-4 Visual
Format profile : Advanced Simple@L5
Format settings, BVOP : 1
Format settings, QPel : No
Format settings, GMC : No warppoints
Format settings, Matrix : Custom
Codec ID : XVID
Codec ID/Hint : XviD
Duration : 1h 56mn
Bit rate : 1 577 Kbps
Width : 704 pixels
Height : 528 pixels
Display aspect ratio : 4:3
Frame rate : 25.000 fps
Color space : YUV
Chroma subsampling : 4:2:0
Bit depth : 8 bits
Scan type : Progressive
Compression mode : Lossy
Bits/(Pixel*Frame) : 0.170
Stream size : 1.29 GiB (89%)
Writing library : XviD 73
Audio
ID : 1
Format : AC-3
Format/Info : Audio Coding 3
Mode extension : CM (complete main)
Format settings, Endianness : Big
Codec ID : 2000
Duration : 1h 56mn
Bit rate mode : Constant
Bit rate : 192 Kbps
Channel(s) : 2 channels
Channel positions : Front: L R
Sampling rate : 48.0 KHz
Frame rate : 31.250 fps (1536 spf)
Compression mode : Lossy
Stream size : 161 MiB (11%)
Alignment : Aligned on interleaves
Interleave, duration : 40 ms (1.00 video frame)
Interleave, preload duratio : 512 ms
[cybertorrent.net].t2081.torrent 
Торрент: Зарегистрирован [ 2019-04-16 16:36 ] · B88BFCF27FD7BB36855BC531133C37C4AA973ED9

Скачать .torrent

Скачать

15 KB

Статус: проверено
Скачан: 0 раз
Размер: 1,45 GB
terms.php
Профиль ЛС
Показать сообщения:    

Текущее время: 16-Ноя 22:10

Часовой пояс: UTC ± 0



Вы не можете начинать темы
Вы не можете отвечать на сообщения
Вы не можете редактировать свои сообщения
Вы не можете удалять свои сообщения
Вы не можете голосовать в опросах
Вы не можете прикреплять файлы к сообщениям
Вы можете скачивать файлы