Статистика раздачи
Размер:  1,45 GB   |    Зарегистрирован:  6 месяцев 2 дня   |    Скачан:  0 раз

Полного источника не было: Никогда

   
 

Гость ®

Пол:
Не указан

Змеиный источник
Жанр: триллер, мелодрама, детектив
Год выпуска: 1997
Продолжительность: 01:27:11
Режиссёр: Николай Лебедев
В ролях: Екатерина Гусева, Ольга Остроумова, Евгений Миронов, Сергей Маховиков, Дмитрий Марьянов, Людмила Алехина, Жанна Андреева, Елена Анисимова, Лев Борисов, Михаил Филиппов...
Описание: Провинциальная история, красиво разыгранная в духе зловещего детектива. Городок, куда приезжает на практику студентка педагогического института Дина, парализован страхом. Серия загадочных убийств внешне похожих друг на друга девушек заставляет жителей думать, что в городе орудует настоящий маньяк.
Доп. информация: У видео плавающий кроп.
Сэмпл: http://sendfile.su/1488729
Качество видео: DVDRip-AVC
Формат видео: MKV
Видео: 690x490 (3:2) @ 736x490, 25.000 fps, AVC, ~2182 Kbps, 0.258 bits/pixel
Аудио: Russian, 48.0 KHz, AC3, 2 ch, 192 Kbps

Сравнение

http://cybertorrent.ru/forum/viewtopic.php?t=3702024
http://screenshotcomparison.com/comparison/133933
видео на 6 секунд больше, из-за того что закодировано вместе с предупреждением

MediaInfo

General
Unique ID : 49509511752339673634492940740177872704 (0x253F2F6420C5A761E132023614E6C740)
Complete name : C:\Змеиный источник.mkv
Format : Matroska
Format version : Version 4 / Version 2
File size : 1.45 GiB
Duration : 1 h 27 min
Overall bit rate : 2 376 kb/s
Encoded date : UTC 2019-04-14 15:58:26
Writing application : mkvmerge v33.0.0 ('A Little Bit of Madness') 64-bit
Writing library : libebml v1.3.7 + libmatroska v1.5.0
Video
ID : 1
Format : AVC
Format/Info : Advanced Video Codec
Format profile : High@L4.1
Format settings : CABAC / 16 Ref Frames
Format settings, CABAC : Yes
Format settings, ReFrames : 16 frames
Codec ID : V_MPEG4/ISO/AVC
Duration : 1 h 27 min
Bit rate : 2 182 kb/s
Width : 690 pixels
Height : 490 pixels
Display aspect ratio : 3:2
Frame rate mode : Constant
Frame rate : 25.000 FPS
Color space : YUV
Chroma subsampling : 4:2:0
Bit depth : 8 bits
Scan type : Progressive
Bits/(Pixel*Frame) : 0.258
Stream size : 1.33 GiB (92%)
Writing library : x264 core 157 r2935 545de2f
Encoding settings : cabac=1 / ref=16 / deblock=1:-1:-1 / analyse=0x3:0x113 / me=umh / subme=11 / psy=1 / psy_rd=1.00:0.20 / mixed_ref=1 / me_range=48 / chroma_me=1 / trellis=2 / 8x8dct=1 / cqm=0 / deadzone=21,11 / fast_pskip=0 / chroma_qp_offset=-3 / threads=6 / lookahead_threads=1 / sliced_threads=0 / nr=0 / decimate=0 / interlaced=0 / bluray_compat=0 / constrained_intra=0 / bframes=16 / b_pyramid=2 / b_adapt=2 / b_bias=0 / direct=3 / weightb=1 / open_gop=0 / weightp=2 / keyint=250 / keyint_min=25 / scenecut=40 / intra_refresh=0 / rc_lookahead=40 / rc=2pass / mbtree=0 / bitrate=2182 / ratetol=1.0 / qcomp=0.60 / qpmin=0 / qpmax=69 / qpstep=4 / cplxblur=20.0 / qblur=0.5 / vbv_maxrate=50000 / vbv_bufsize=62500 / nal_hrd=none / filler=0 / ip_ratio=1.40 / pb_ratio=1.30 / aq=1:1.00
Language : Russian
Default : Yes
Forced : No
Audio
ID : 2
Format : AC-3
Format/Info : Audio Coding 3
Commercial name : Dolby Digital
Codec ID : A_AC3
Duration : 1 h 27 min
Bit rate mode : Constant
Bit rate : 192 kb/s
Channel(s) : 2 channels
Channel layout : L R
Sampling rate : 48.0 kHz
Frame rate : 31.250 FPS (1536 SPF)
Bit depth : 16 bits
Compression mode : Lossy
Stream size : 120 MiB (8%)
Language : Russian
Service kind : Complete Main
Default : Yes
Forced : No

Скриншоты

[cybertorrent.net].t2077.torrent 
Торрент: Зарегистрирован [ 2019-04-16 16:36 ] · 1B19F5A654172D3BC5611604A98649D23BC18178

Скачать .torrent

Скачать

15 KB

Статус: проверено
Скачан: 0 раз
Размер: 1,45 GB
terms.php
Показать сообщения:    

Текущее время: 19-Окт 10:07

Часовой пояс: UTC ± 0



Вы не можете начинать темы
Вы не можете отвечать на сообщения
Вы не можете редактировать свои сообщения
Вы не можете удалять свои сообщения
Вы не можете голосовать в опросах
Вы не можете прикреплять файлы к сообщениям
Вы можете скачивать файлы