Статистика раздачи
Размер:  1,37 GB   |    Зарегистрирован:  7 месяцев 4 дня   |    Скачан:  1 раз

Полного источника не было: 6 месяцев 11 дней

 
     
 
 

serzh ®

Пол:
Не указан
Стаж:
8 месяцев 8 дней
Сообщений:
384

Медиум / Medium
Страна: Польша
Жанр: Мистика, Хоррор
Год выпуска: 1985
Продолжительность: 01:29:16
Перевод: Любительский (двухголосый закадровый)
Субтитры: Русские
Оригинальная аудиодорожка: Польский
Режиссер: Яцек Копрович / Jacek Koprowicz
В ролях: Владислав Ковальский, Михал Байор, Гражина Шаполовска, Ежи Зельник, Ежи Штур и др.
Описание: Сопот, утро 3 октября 1933 года. Ровно через 36 лет после кровавой трагедии, разыгравшейся на вилле Стефана Орвича, в городе происходят странные вещи: комиссар полиции Селин /Ковальский/ просыпается на берегу моря и не помнит, как он туда попал; учительница Луиза /Шаполовска/ покидает класс в середине урока и похищает в музее старинное платье; статный Анджей /Зельник/ и горбун Ежи /Штур/ прибывают в город поездом – один из Варшавы, другой из Берлина, и оба не понимают, зачем. И всё это на фоне предстоящего солнечного затмения! Но пока только один человек ощущает необычность начинающегося дня: это Грета, младшая сестра оккультиста Вагнера. Ей удалось установить контакт с медиумом невиданной силы, способным контролировать нескольких людей одновременно. А Гитлер – уже рейхсканцлер, а по вокзалу Сопота движутся бодрым маршем подростки с транспарантами НСДАП, а исполнительному стажёру полиции Кранку кажется, что в руках фюрера такой медиум может стать оружием с неограниченными возможностями...
Приз за лучший оригинальный сценарий и номинация на Гран-при на МКФ мистики и хоррора "Мистфест" в Каттолике (Италия), 1985
Доп. информация: Рип с моего DVD Дефекты пленки как на ТВ рипе отсутствуют и нет логотипа канала.
Сравнение рипов http://cybertorrent.ru/forum/viewtopic.php?t=2802975 - http://screenshotcomparison.com/comparison/133954/picture:0
Сэмпл: http://multi-up.com/1229432
Качество видео: DVDRip
Формат видео: AVI
Видео: XviD 720х464, 25.000 fps, 1 769 Kbps
Аудио 1: Русский (AC3 192 kbps 2 ch 48.0 KHz)
Аудио 2: Польский (AC3 224 kbps 2 ch 48.0 KHz)
Формат субтитров: softsub (SRT)

MediaInfo

General
Complete name : C:\Documents and Settings\admin\Мои документы\Downloads\Medium AVI\Medium.avi
Format : AVI
Format/Info : Audio Video Interleave
File size : 1.37 GiB
Duration : 1h 29mn
Overall bit rate : 2 194 Kbps
Writing application : VirtualDubMod 1.5.4.1 (build 2178/release)
Writing library : VirtualDubMod build 2178/release
Video
ID : 0
Format : MPEG-4 Visual
Format profile : Advanced Simple@L5
Format settings, BVOP : 1
Format settings, QPel : No
Format settings, GMC : No warppoints
Format settings, Matrix : Custom
Codec ID : XVID
Codec ID/Hint : XviD
Duration : 1h 29mn
Bit rate : 1 769 Kbps
Width : 720 pixels
Height : 464 pixels
Display aspect ratio : 16:10
Frame rate : 25.000 fps
Color space : YUV
Chroma subsampling : 4:2:0
Bit depth : 8 bits
Scan type : Progressive
Compression mode : Lossy
Bits/(Pixel*Frame) : 0.212
Stream size : 1.10 GiB (81%)
Writing library : XviD 67
Audio #1
ID : 1
Format : AC-3
Format/Info : Audio Coding 3
Mode extension : CM (complete main)
Format settings, Endianness : Big
Codec ID : 2000
Duration : 1h 29mn
Bit rate mode : Constant
Bit rate : 192 Kbps
Channel(s) : 2 channels
Channel positions : Front: L R
Sampling rate : 48.0 KHz
Bit depth : 16 bits
Compression mode : Lossy
Stream size : 123 MiB (9%)
Alignment : Split accross interleaves
Interleave, duration : 96 ms (2.40 video frames)
Interleave, preload duration : 96 ms
Audio #2
ID : 2
Format : AC-3
Format/Info : Audio Coding 3
Mode extension : CM (complete main)
Format settings, Endianness : Big
Codec ID : 2000
Duration : 1h 29mn
Bit rate mode : Constant
Bit rate : 224 Kbps
Channel(s) : 2 channels
Channel positions : Front: L R
Sampling rate : 48.0 KHz
Bit depth : 16 bits
Compression mode : Lossy
Stream size : 143 MiB (10%)
Alignment : Split accross interleaves
Interleave, duration : 96 ms (2.40 video frames)
Interleave, preload duration : 96 ms

Скриншот c названием фильма

Скриншоты

Пример субтитров

1
00:00:18,917 --> 00:00:21,750
Кинокомпания "ТОР"
представляет
2
00:00:22,682 --> 00:00:26,941
Фильм Яцека Копровича
3
00:00:27,398 --> 00:00:29,047
В главных ролях
4
00:00:30,500 --> 00:00:34,225
Владислав Ковальский
5
00:00:34,226 --> 00:00:37,187
Михал Байор
6
00:00:37,188 --> 00:00:40,811
Гражина Шаполовска
7
00:00:40,812 --> 00:00:44,831
Ежи Штур
и другие
8
00:00:58,871 --> 00:01:01,826
Звукооператор
Януш Котарский
9
00:01:02,522 --> 00:01:04,892
Композитор
Кшесимир Дембский
10
00:01:06,041 --> 00:01:09,504
Монтаж
Мирослава Гарлицка
11
00:01:09,890 --> 00:01:12,053
Директор фильма
Михал Щербиц
12
00:01:14,292 --> 00:01:19,021
Операторы
Вит Донбал
Ежи Зелиньский
13
00:01:20,505 --> 00:01:25,034
Автор сценария и режиссёр
Яцек Копрович
14
00:01:28,504 --> 00:01:34,416
МЕДИУМ
15
00:01:43,223 --> 00:01:45,398
- Сливки добавил?
- Спасибо.
16
00:01:48,575 --> 00:01:50,271
Извечные тайны Вселенной
17
00:01:50,391 --> 00:01:52,342
Несколько слов о Солнце
по случаю сегодняшнего затмения.

18
00:02:01,037 --> 00:02:03,070
Да упокоится с миром Францишек Адамчик
капитан в отставке, капельмейстер

19
00:02:29,350 --> 00:02:32,227
Предполагаемая дата смерти -
2 октября 1933 г.

20
00:02:33,693 --> 00:02:35,105
Совпадает.
[cybertorrent.net].t2076.torrent 
Торрент: Зарегистрирован [ 2019-04-16 16:36 ] · 048388C0AB21553F0F21849574C5C8394E56CEEE

Скачать .torrent

Скачать

14 KB

Статус: проверено
Скачан: 1 раз
Размер: 1,37 GB
terms.php
Профиль [ЛС]
Показать сообщения:    

Текущее время: 21-Ноя 09:30

Часовой пояс: UTC ± 0



Вы не можете начинать темы
Вы не можете отвечать на сообщения
Вы не можете редактировать свои сообщения
Вы не можете удалять свои сообщения
Вы не можете голосовать в опросах
Вы не можете прикреплять файлы к сообщениям
Вы можете скачивать файлы