Статистика раздачи
Размер:  2,2 GB   |    Зарегистрирован:  6 месяцев 27 дней   |    Скачан:  0 раз

Полного источника не было: Никогда

 
     
 
 

Гость ®

Пол:
Не указан

Клаустрофобы / Escape Room
«Игры кончились»
- Год выхода: 2019
Страна: США, Канада
Жанр: триллер
Продолжительность: 01:39:37
Перевод: Профессиональный (полное дублирование)
Субтитры: Русские (форс., полные), Английские (полные, SDH)
Оригинальная аудиодорожка: Английская
Навигация по главам: Есть (16 глав)-Режиссер:
Адам Робител / Adam Robitel-В ролях:
Тейлор Расселл, Логан Миллер, Джей Эллис, Тайлер Лабин, Дебора Энн Уолл, Ник Додани, Йорик ван Вагенинген, Корнелиус Джини мл., Рассел Кроус, Барт Фаш-О фильме:
Получив приглашение сыграть в квест, победитель которого получит денежное вознаграждение, шестеро прежде незнакомых между собой людей решают испытать удачу. Но вскоре становится очевидно, что их выбрали для игры не случайно, задания не такие безобидные, участникам грозит вполне реальная опасность, а ставка в игре — их собственные жизни.-Релиз групп | | IMDB | КиноПоиск | Сэмпл |-Качество: BDRip-AVC [Escape.Room.2019.COMPLETE.BLURAY-LAZERS]
Формат: MKV
Видео: 1152x482 (2,40:1), 23.976 fps, x264 ~2266 kbps avg, 0.170 bit/pixel
Аудио #1: 48 kHz, AC3 Dolby Digital, 3/2 (L,C,R,l,r) + LFE ch, ~384.00 kbps avg (RUS)
Аудио #2: 48 kHz, AC3 Dolby Digital, 3/2 (L,C,R,l,r) + LFE ch, ~448.00 kbps avg (ENG)
Формат субтитров: Softsub (.srt*)-

Скриншоты

-

MediaInfo

Код:Полное имя : D:\Klaustrofoby_2019_BDRip-AVC_iT_by_Dalemake.mkv
Формат : Matroska
Версия формата : Version 4 / Version 2
Размер файла : 2,20 Гбайт
Продолжительность : 1 ч. 39 м.
Общий поток : 3161 Кбит/сек
Название фильма : [Escape_Room_2019_All Films_Rutracker.org_by Dalemake]
Дата кодирования : UTC 2019-04-15 18:31:56
Программа кодирования : mkvmerge v7.8.0 ('River Man') 32bit built on Apr 3 2015 12:11:22
Библиотека кодирования : libebml v1.3.1 + libmatroska v1.4.2
DURATION : 01:25:52.569000000
NUMBER_OF_FRAMES : 4
NUMBER_OF_BYTES : 113
_STATISTICS_WRITING_APP : mkvmerge v7.8.0 ('River Man') 32bit built on Apr 3 2015 12:11:22
_STATISTICS_WRITING_DATE_UTC : 2019-04-15 18:31:56
_STATISTICS_TAGS : BPS DURATION NUMBER_OF_FRAMES NUMBER_OF_BYTES
Видео
Идентификатор : 1
Формат : AVC
Формат/Информация : Advanced Video Codec
Профиль формата : High@L4.1
Параметр CABAC формата : Да
Параметр ReFrames формата : 11 кадров
Идентификатор кодека : V_MPEG4/ISO/AVC
Продолжительность : 1 ч. 39 м.
Битрейт : 2266 Кбит/сек
Ширина : 1152 пикселя
Высота : 482 пикселя
Соотношение сторон : 2,40:1
Частота кадров : 23,976 кадра/сек
Цветовое пространство : YUV
Субдискретизация насыщенности : 4:2:0
Битовая глубина : 8 бит
Тип развёртки : Прогрессивная
Бит/(Пиксели*Кадры) : 0.170
Размер потока : 1,58 Гбайт (72%)
Заголовок : [Escape_Room_2019_All Films_Rutracker.org_by Dalemake]
Библиотека кодирования : x264 core 157 r2935 545de2f
Настройки программы : cabac=1 / ref=11 / deblock=1:-2:-2 / analyse=0x3:0x133 / me=umh / subme=10 / psy=1 / psy_rd=1.00:0.00 / mixed_ref=1 / me_range=24 / chroma_me=1 / trellis=2 / 8x8dct=1 / cqm=0 / deadzone=21,11 / fast_pskip=1 / chroma_qp_offset=-4 / threads=6 / lookahead_threads=1 / sliced_threads=0 / nr=0 / decimate=0 / interlaced=0 / bluray_compat=0 / constrained_intra=0 / bframes=12 / b_pyramid=2 / b_adapt=2 / b_bias=0 / direct=1 / weightb=1 / open_gop=0 / weightp=2 / keyint=240 / keyint_min=23 / scenecut=40 / intra_refresh=0 / rc_lookahead=60 / rc=crf / mbtree=0 / crf=17.5 / qcomp=0.60 / qpmin=0 / qpmax=69 / qpstep=4 / vbv_maxrate=50000 / vbv_bufsize=62500 / crf_max=0.0 / nal_hrd=none / filler=0 / ip_ratio=1.40 / pb_ratio=1.35 / aq=1:1.00
Язык : English
Default : Да
Forced : Нет
DURATION : 01:39:37.940000000
NUMBER_OF_FRAMES : 143327
NUMBER_OF_BYTES : 1738837580
_STATISTICS_WRITING_APP : mkvmerge v7.8.0 ('River Man') 32bit built on Apr 3 2015 12:11:22
_STATISTICS_WRITING_DATE_UTC : 2019-04-15 18:31:56
_STATISTICS_TAGS : BPS DURATION NUMBER_OF_FRAMES NUMBER_OF_BYTES
Аудио #1
Идентификатор : 2
Формат : AC-3
Формат/Информация : Audio Coding 3
Расширение режима : CM (complete main)
Параметр Endianness формата : Big
Идентификатор кодека : A_AC3
Продолжительность : 1 ч. 39 м.
Вид битрейта : Постоянный
Битрейт : 384 Кбит/сек
Каналы : 6 каналов
Расположение каналов : Front: L C R, Side: L R, LFE
Частота : 48,0 КГц
Битовая глубина : 16 бит
Метод сжатия : С потерями
Размер потока : 274 Мбайт (12%)
Заголовок : Dub - iTunes Russia
Язык : Russian
Default : Да
Forced : Нет
Аудио #2
Идентификатор : 3
Формат : AC-3
Формат/Информация : Audio Coding 3
Расширение режима : CM (complete main)
Параметр Endianness формата : Big
Идентификатор кодека : A_AC3
Продолжительность : 1 ч. 39 м.
Вид битрейта : Постоянный
Битрейт : 448 Кбит/сек
Каналы : 6 каналов
Расположение каналов : Front: L C R, Side: L R, LFE
Частота : 48,0 КГц
Битовая глубина : 16 бит
Метод сжатия : С потерями
Размер потока : 319 Мбайт (14%)
Заголовок : Original
Язык : English
Default : Нет
Forced : Нет
Текст #1
Идентификатор : 4
Формат : UTF-8
Идентификатор кодека : S_TEXT/UTF8
Идентификатор кодека/Информация : UTF-8 Plain Text
Заголовок : Forced
Язык : Russian
Default : Да
Forced : Да
Текст #2
Идентификатор : 5
Формат : UTF-8
Идентификатор кодека : S_TEXT/UTF8
Идентификатор кодека/Информация : UTF-8 Plain Text
Заголовок : Full
Язык : Russian
Default : Нет
Forced : Нет
Текст #3
Идентификатор : 6
Формат : UTF-8
Идентификатор кодека : S_TEXT/UTF8
Идентификатор кодека/Информация : UTF-8 Plain Text
Заголовок : Full
Язык : English
Default : Нет
Forced : Нет
Текст #4
Идентификатор : 7
Формат : UTF-8
Идентификатор кодека : S_TEXT/UTF8
Идентификатор кодека/Информация : UTF-8 Plain Text
Заголовок : Full - SDH
Язык : English
Default : Нет
Forced : Нет
Меню
00:00:00.000 : en:00:00:00.000
00:04:36.026 : en:00:04:36.026
00:09:25.648 : en:00:09:25.648
00:14:08.765 : en:00:14:08.765
00:19:46.102 : en:00:19:46.102
00:25:55.220 : en:00:25:55.220
00:33:08.945 : en:00:33:08.945
00:37:27.162 : en:00:37:27.162
00:43:05.082 : en:00:43:05.082
00:50:06.170 : en:00:50:06.170
00:53:58.569 : en:00:53:58.569
01:03:15.291 : en:01:03:15.291
01:09:07.894 : en:01:09:07.894
01:16:14.695 : en:01:16:14.695
01:22:48.755 : en:01:22:48.755
01:30:27.881 : en:01:30:27.881

-
-Сообщения из этой темы [6 шт.] были выделены в отдельную тему )(
порошков
[cybertorrent.net].t2075.torrent 
Торрент: Зарегистрирован [ 2019-04-16 16:36 ] · F7B63FD6384111EC5D20E3E2D5B5A15134C1DE70

Скачать .torrent

Скачать

11 KB

Статус: проверено
Скачан: 0 раз
Размер: 2,2 GB
terms.php
Показать сообщения:    

Текущее время: 13-Ноя 17:50

Часовой пояс: UTC ± 0



Вы не можете начинать темы
Вы не можете отвечать на сообщения
Вы не можете редактировать свои сообщения
Вы не можете удалять свои сообщения
Вы не можете голосовать в опросах
Вы не можете прикреплять файлы к сообщениям
Вы можете скачивать файлы