Статистика раздачи
Размер:  744 MB   |    Зарегистрирован:  6 месяцев 1 день   |    Скачан:  0 раз

Полного источника не было: Никогда

   
 

Гость ®

Пол:
Не указан

Клаустрофобы / Escape Room
Страна: США, Канада
Жанр: триллер
Год выпуска: 2019
Продолжительность: 01:39:36-Перевод: Профессиональный (дублированный) | iTunes
Субтитры: нет
Оригинальная аудиодорожка: нет-Режиссер: Адам Робител / Adam Robitel-В ролях: Тейлор Расселл, Логан Миллер, Джей Эллис, Тайлер Лабин, Дебора Энн Уолл, Ник Додани, Йорик ван Вагенинген, Корнелиус Джини мл., Рассел Кроус, Барт Фаш-Описание: Получив приглашение сыграть в квест, победитель которого получит денежное вознаграждение, шестеро прежде незнакомых между собой людей решают испытать удачу. Но вскоре становится очевидно, что их выбрали для игры не случайно, задания не такие безобидные, участникам грозит вполне реальная опасность, а ставка в игре — их собственные жизни.- -Качество видео: HDRip
Формат видео: AVI
Видео: 688x288 (2.39:1), 23.976 fps, XviD build 73 ~906 kbps avg, 0.19 bit/pixel
Аудио: 48 kHz, MPEG Layer 3, 2 ch, ~128.00 kbps avg-[box]Сэмпл[/box]-

MediaInfo

Код:Формат : AVI
Формат/Информация : Audio Video Interleave
Размер файла : 744 Мбайт
Продолжительность : 1 ч. 39 м.
Общий поток : 1044 Кбит/сек
Программа кодирования : VirtualDubMod 1.5.10.3 | www.virtualdub-fr.org || (build 2550/release)
Библиотека кодирования : VirtualDubMod build 2550/release
Видео
Идентификатор : 0
Формат : MPEG-4 Visual
Профиль формата : Advanced Simple@L5
Настройки формата : BVOP1 / Custom Matrix
Параметр BVOP формата : 1
Параметр QPel формата : Нет
Параметр GMC формата : Без точки перехода
Параметр матрицы формата : Выборочная
Идентификатор кодека : XVID
Идентификатор кодека/Подсказка : XviD
Продолжительность : 1 ч. 39 м.
Битрейт : 907 Кбит/сек
Ширина : 688 пикселей
Высота : 288 пикселей
Соотношение сторон : 2,40:1
Частота кадров : 23,976 (24000/1001) кадра/сек
Цветовое пространство : YUV
Субдискретизация насыщенности : 4:2:0
Битовая глубина : 8 бит
Тип развёртки : Прогрессивная
Метод сжатия : С потерями
Бит/(Пиксели*Кадры) : 0.191
Размер потока : 646 Мбайт (87%)
Библиотека кодирования : XviD 73
Аудио
Идентификатор : 1
Формат : MPEG Audio
Версия формата : Version 1
Профиль формата : Layer 3
Идентификатор кодека : 55
Идентификатор кодека/Подсказка : MP3
Продолжительность : 1 ч. 39 м.
Вид битрейта : Постоянный
Битрейт : 128 Кбит/сек
Каналы : 2 канала
Частота : 48,0 КГц
Частота кадров : 41,667 кадра/сек (1152 SPF)
Метод сжатия : С потерями
Размер потока : 91,2 Мбайт (12%)
Выравнивание : Соединение по промежуткам
Продолжительность промежутка : 42 мс. (1,00 видеокадр)
Время предзагрузки промежутка : 504 мс.
Библиотека кодирования : LAME3.99r
Настройки программы : -m s -V 4 -q 2 -lowpass 17 -b 128

Скриншоты


[cybertorrent.net].t2062.torrent 
Торрент: Зарегистрирован [ 2019-04-15 16:13 ] · E33427EDB35CDADA46050F77C9A302A67DEB1947

Скачать .torrent

Скачать

15 KB

Статус: проверено
Скачан: 0 раз
Размер: 744 MB
terms.php
Показать сообщения:    

Текущее время: 17-Окт 05:03

Часовой пояс: UTC ± 0



Вы не можете начинать темы
Вы не можете отвечать на сообщения
Вы не можете редактировать свои сообщения
Вы не можете удалять свои сообщения
Вы не можете голосовать в опросах
Вы не можете прикреплять файлы к сообщениям
Вы можете скачивать файлы