Статистика раздачи
Размер:  798 MB   |    Зарегистрирован:  6 месяцев 28 дней   |    Скачан:  0 раз

Полного источника не было: Никогда

 
     
 
 

солнышко ®

Пол:
Не указан
Стаж:
8 месяцев 1 день
Сообщений:
565

Маленькие гиганты / Гигантские малыши / Giant Little Ones
Страна: Канада
Год выпуска: 2018
Жанр: драма, мелодрама
Продолжительность: 01:33:05
Перевод 1: Любительский (многоголосый закадровый) - Синема УС
Перевод 2: Любительский (двухголосый закадровый) - LakeFilms
Субтитры: нет
Оригинальная аудиодорожка: английский
Режиссёр: Кит Берман / Keith Behrman
В ролях: Джош Уиггинс, Даррен Манн, Кайл МакЛоклен, Мария Белло, Тэйлор Хиксон, Нив Уилсон, Киана Мадейра, Оливия Скривен, Питер Аутербридж, Хайли Киттл, Ивэн Марш, Карсон МакКормак, Джефф Кларк
Описание: История о подростковой сексуальности и взрослении. Популярный старшеклассник Фрэнки готовится закатить вечеринку в честь своего 17-тилетия, которая обернётся драматическим переломом в его отношениях с близкими, другом детства и любимой девушкой.
Сэмпл: https://www.sendspace.com/file/pnto0a
Качество видео: HDRip
Формат видео: AVI
Видео: XviD; 720 x 304 (2,35:1); 23,976 кадров/сек; 800 Кбит/сек
Аудио 1: MP3; 48 КГц; 128 Кбит/сек; 2 канала; MVO (Русский, Смнема УС)
Аудио 2: MP3; 48 КГц; 128 Кбит/сек; 2 канала; DVO (Русский, LakeFilms)
Аудио 3: MP3; 48 КГц; 128 Кбит/сек; 2 канала; Оригинал (Английский, отдельным файлом)

MediaInfo

Общее
Формат : AVI
Формат/Информация : Audio Video Interleave
Размер файла : 712 Мбайт
Продолжительность : 1 ч. 33 м.
Общий поток : 1070 Кбит/сек
Программа кодирования : VirtualDubModRus 1.5.10.2 (build 2542/release)
Библиотека кодирования : VirtualDubMod build 2542/release
Видео
Идентификатор : 0
Формат : MPEG-4 Visual
Профиль формата : Advanced Simple@L5
Настройки формата : BVOP2
Параметр BVOP формата : 2
Параметр QPel формата : Нет
Параметр GMC формата : Без точки перехода
Параметр матрицы формата : Default (H.263)
Идентификатор кодека : XVID
Идентификатор кодека/Подсказка : XviD
Продолжительность : 1 ч. 33 м.
Битрейт : 800 Кбит/сек
Ширина : 720 пикселей
Высота : 304 пикселя
Соотношение сторон : 2,35:1
Частота кадров : 23,976 (24000/1001) кадра/сек
Цветовое пространство : YUV
Субдискретизация насыщенности : 4:2:0
Битовая глубина : 8 бит
Тип развёртки : Прогрессивная
Метод сжатия : С потерями
Бит/(Пиксели*Кадры) : 0.152
Размер потока : 532 Мбайт (75%)
Библиотека кодирования : XviD 67
Аудио #1
Идентификатор : 1
Формат : MPEG Audio
Версия формата : Version 1
Профиль формата : Layer 3
Настройки формата : Joint stereo
Идентификатор кодека : 55
Идентификатор кодека/Подсказка : MP3
Продолжительность : 1 ч. 33 м.
Вид битрейта : Постоянный
Битрейт : 128 Кбит/сек
Каналы : 2 канала
Частота : 48,0 КГц
Частота кадров : 41,667 кадра/сек (1152 SPF)
Метод сжатия : С потерями
Размер потока : 85,2 Мбайт (12%)
Выравнивание : Разделение по промежуткам
Продолжительность промежутка : 42 мс. (1,00 видеокадр)
Время предзагрузки промежутка : 500 мс.
Заголовок : Синема УС
Библиотека кодирования : LAME3.100
Настройки программы : -m j -V 4 -q 2 -lowpass 17 -b 128
Аудио #2
Идентификатор : 2
Формат : MPEG Audio
Версия формата : Version 1
Профиль формата : Layer 3
Настройки формата : Joint stereo / MS Stereo
Идентификатор кодека : 55
Идентификатор кодека/Подсказка : MP3
Продолжительность : 1 ч. 33 м.
Вид битрейта : Постоянный
Битрейт : 128 Кбит/сек
Каналы : 2 канала
Частота : 48,0 КГц
Частота кадров : 41,667 кадра/сек (1152 SPF)
Метод сжатия : С потерями
Размер потока : 85,2 Мбайт (12%)
Выравнивание : Разделение по промежуткам
Продолжительность промежутка : 42 мс. (1,00 видеокадр)
Время предзагрузки промежутка : 500 мс.
Заголовок : LakeFilms
Библиотека кодирования : LAME3.100
Настройки программы : -m j -V 4 -q 2 -lowpass 17 -b 128
-
Общее
Формат : MPEG Audio
Размер файла : 85,2 Мбайт
Продолжительность : 1 ч. 33 м.
Режим общего битрейта : Постоянный
Общий поток : 128 Кбит/сек
Библиотека кодирования : LAME3.100
Аудио
Формат : MPEG Audio
Версия формата : Version 1
Профиль формата : Layer 3
Настройки формата : Joint stereo
Продолжительность : 1 ч. 33 м.
Вид битрейта : Постоянный
Битрейт : 128 Кбит/сек
Каналы : 2 канала
Частота : 48,0 КГц
Частота кадров : 41,667 кадра/сек (1152 SPF)
Метод сжатия : С потерями
Размер потока : 85,2 Мбайт (100%)
Библиотека кодирования : LAME3.100
Настройки программы : -m j -V 4 -q 2 -lowpass 17 -b 128

Скриншот c названием фильма

Поскольку в фильме присутствует гей-тема, то уместно будет напомнить, что если у кого есть желание ознакомиться с другими художественными и документальными фильмами , сериалами , мультфильмами и аниме, передачами по ЛГБТ-тематике , то на Рутрекере есть тема ЛГБТ в кинематографе .
[cybertorrent.net].t2060.torrent 
Торрент: Зарегистрирован [ 2019-04-15 16:13 ] · 3D9D24581AD2BF13448B811B08749A28189D8AA2

Скачать .torrent

Скачать

16 KB

Статус: проверено
Скачан: 0 раз
Размер: 798 MB
terms.php
Профиль ЛС
Показать сообщения:    

Текущее время: 14-Ноя 06:44

Часовой пояс: UTC ± 0



Вы не можете начинать темы
Вы не можете отвечать на сообщения
Вы не можете редактировать свои сообщения
Вы не можете удалять свои сообщения
Вы не можете голосовать в опросах
Вы не можете прикреплять файлы к сообщениям
Вы можете скачивать файлы