Статистика раздачи
Размер:  2,4 GB   |    Зарегистрирован:  6 месяцев 29 дней   |    Скачан:  0 раз
Сидов:  42  [  0 KB/s  ]   Личеров:  1  [  0 KB/s  ]  
 
     
 
 

Гость ®

Пол:
Не указан

Конь изабелловой масти
Год выпуска: 2019
Производство: Россия Леандра
Жанр: детектив
Продолжительность: 00:47:00
Субтитры: нет
Режиссёр: Арменак Назикян
В ролях: Наталья Терехова, Никита Зверев, Анастасия Квитко, Андрей Чулков, Мария Охман, Сергей Барковский, Валерий Хрулев, Дмитрий Фрид
Описание: Любовная лодка Вари и Сергея Ворониных разбилась о быт: взаимные упреки, непонимание, проблемы с сыном-подростком. В общем, развод. Вполне банальная история, если бы не… В далёкой арабской стране похищен баснословно дорогой скакун, победитель многих скачек, да ещё обладатель редчайшей масти - изабелловой. На розыски коня брошены силы полиций многих государств, в том числе и России. Волею всемогущего случая развалившаяся семья Ворониных оказывается втянутой в эту "восточную сказку о волшебном коне", оказавшуюся для них не только страшной, смертельно опасной, но и, как ни странно, спасительной.
Реклама: Нет
Сэмпл: https://www.mediafire.com/#myfiles
Качество: WEBRip
Формат: AVI
Видео кодек: XviD
Аудио кодек: AC3
Видео: XVID; 1600 Кбит/сек; 720х400 (16:9); 25,000 кадров/сек; Бит/(Пиксели*Кадры): 0.222
Аудио: AC-3; 192 Кбит/сек; 2 канала; 48,0 КГц

MI

Общее
Полное имя : D:\закачки\Конь изабелловой масти.2019.WEB-DLRip. Files-x\02. Конь изабелловой масти.2019.WEB-DLRip. Files-x.avi
Формат : AVI
Формат/Информация : Audio Video Interleave
Размер файла : 615 Мбайт
Продолжительность : 47 м. 43 с.
Общий поток : 1801 Кбит/сек
Программа кодирования : VirtualDubMod 1.5.10.3 | www.virtualdub-fr.org || (build 2550/release)
Библиотека кодирования : VirtualDubMod build 2550/release
Видео
Идентификатор : 0
Формат : MPEG-4 Visual
Профиль формата : Advanced Simple@L5
Настройки формата : BVOP1 / Custom Matrix
Параметр BVOP формата : 1
Параметр QPel формата : Нет
Параметр GMC формата : Без точки перехода
Параметр матрицы формата : Выборочная
Идентификатор кодека : XVID
Идентификатор кодека/Подсказка : XviD
Продолжительность : 47 м. 43 с.
Битрейт : 1600 Кбит/сек
Ширина : 720 пикселей
Высота : 400 пикселей
Соотношение сторон : 16:9
Частота кадров : 25,000 кадров/сек
Цветовое пространство : YUV
Субдискретизация насыщенности : 4:2:0
Битовая глубина : 8 бит
Тип развёртки : Прогрессивная
Метод сжатия : С потерями
Бит/(Пиксели*Кадры) : 0.222
Размер потока : 546 Мбайт (89%)
Библиотека кодирования : XviD 73
Аудио
Идентификатор : 1
Формат : AC-3
Формат/Информация : Audio Coding 3
Идентификатор кодека : 2000
Продолжительность : 47 м. 43 с.
Вид битрейта : Постоянный
Битрейт : 192 Кбит/сек
Каналы : 2 канала
Расположение каналов : Front: L R
Частота : 48,0 КГц
Частота кадров : 31,250 кадров/сек (1536 SPF)
Битовая глубина : 16 бит
Метод сжатия : С потерями
Размер потока : 65,5 Мбайт (11%)
Выравнивание : Разделение по промежуткам
Продолжительность промежутка : 40 мс. (1,00 видеокадр)
Время предзагрузки промежутка : 500 мс.
ServiceKind/String : Complete Main

Скриншоты

Предыдущие и альтернативные раздачи
Релиз-группы
[cybertorrent.net].t2055.torrent 
Торрент: Зарегистрирован [ 2019-04-14 15:48 ] · B3C8B265D3061FA9AC2B4E85D0B3DDA0463C923F

Скачать .torrent

Скачать

13 KB

Статус: проверено
Скачан: 0 раз
Размер: 2,4 GB
terms.php
Показать сообщения:    

Текущее время: 14-Ноя 06:43

Часовой пояс: UTC ± 0



Вы не можете начинать темы
Вы не можете отвечать на сообщения
Вы не можете редактировать свои сообщения
Вы не можете удалять свои сообщения
Вы не можете голосовать в опросах
Вы не можете прикреплять файлы к сообщениям
Вы можете скачивать файлы