Статистика раздачи
Размер:  739 MB   |    Зарегистрирован:  7 месяцев 2 дня   |    Скачан:  0 раз

Полного источника не было: Никогда

 
     
 
 

serzh ®

Пол:
Не указан
Стаж:
8 месяцев 4 дня
Сообщений:
384

Жара Аризоны / Аризонские полицейские
В Аризоне стреляют без промаха / Аризонская жара
Arizona Heat

Страна: США
Жанр: боевик
Год выпуска: 1988
Продолжительность: 01:28:08
Перевод: Авторский (одноголосый закадровый) Владимира Козлова /Петербуржец/
Субтитры: нет
Оригинальная аудиодорожка: нет
Режиссер: Джон Дж. Томас /John G. Thomas/
В ролях: Майкл Паркс /Michael Parks/, Дениз Кросби /Denise Crosby/, Хью Фаррингтон /Hugh Farrington/, Дэннис О’Салливан /Dennis O'Sullivan/, Рената Ли /Renata Lee/, Майкл Уолтман /Michael Waltman/, Ричард Гловер /Richard Glover/, Майкл МакКейб /Michael McCabe/...
Описание: Полиция, как известно, бывает разная. Особенно в детективах и триллерах. От жестких коррумпированных монстров - до благородных рыцарей без страха и упрека. Нас, скорее всего, ожидает второй вариант. Правда, благородного рыцаря "коп" Кипинский напоминает мало: груб, с девочками балуется, выпить не дурак. Но авторы действуют по методу своих советских коллег застойного образца: покажем недостатки, а потом - высокие производственные показатели, которым эти недостатки не мешают. А у Кипинского дел хватает: кто-то открыл настоящий террор против полицейских. Коллеги гибнут один за другим, а тут еще в напарники дали женщину по имени Джил, совершенно равнудушную к мужскому обаянию "копа"... И что же из всего этого получилось? А вот и не то, что Вы подумали. Результат оказался просто по Бернарду Шоу: союз "дружных старых холостяков".
Доп. информация: рип сделал alenavova; Петербуржца оцифровал и подготовил karlll
~СЭМПЛ~
Качество видео: VHSRip
Формат видео: AVI
Видео: 528x384 (1.38:1), 25 fps, XviD MPEG-4 ~969 kbps avg, 0.19 bit/pixel
Аудио: 48 kHz, AC3 Dolby Digital, 2/0 (L,R) ch, ~192 kbps

MediaInfo

Format : AVI
Format/Info : Audio Video Interleave
File size : 739 MiB
Duration : 1 h 28 min
Overall bit rate : 1 172 kb/s
Movie name : Arizona Heat_1988_VHSRip_Петербуржец
Writing application : VirtualDubMod 1.5.10.3 | www.virtualdub-fr.org || (build 2550/release)
Writing library : VirtualDubMod build 2550/release
Copyright : KBC + VHSRip by alenavova
Video
ID : 0
Format : MPEG-4 Visual
Format profile : Advanced Simple@L5
Format settings : BVOP1
Format settings, BVOP : 1
Format settings, QPel : No
Format settings, GMC : No warppoints
Format settings, Matrix : Default (MPEG)
Muxing mode : Packed bitstream
Codec ID : XVID
Codec ID/Hint : XviD
Duration : 1 h 28 min
Bit rate : 971 kb/s
Width : 528 pixels
Height : 384 pixels
Display aspect ratio : 1.375
Frame rate : 25.000 FPS
Color space : YUV
Chroma subsampling : 4:2:0
Bit depth : 8 bits
Scan type : Progressive
Compression mode : Lossy
Bits/(Pixel*Frame) : 0.192
Stream size : 612 MiB (83%)
Writing library : XviD 1.2.0.dev47 (UTC 2006-11-01)
Audio
ID : 1
Format : AC-3
Format/Info : Audio Coding 3
Commercial name : Dolby Digital
Codec ID : 2000
Duration : 1 h 28 min
Bit rate mode : Constant
Bit rate : 192 kb/s
Channel(s) : 2 channels
Channel layout : L R
Sampling rate : 48.0 kHz
Frame rate : 31.250 FPS (1536 SPF)
Bit depth : 16 bits
Compression mode : Lossy
Stream size : 121 MiB (16%)
Alignment : Split accross interleaves
Interleave, duration : 40 ms (1.00 video frame)
Interleave, preload duration : 500 ms
Title : Козлов /Петербуржец/
Service kind : Complete Main

Скриншоты

[cybertorrent.net].t2034.torrent 
Торрент: Зарегистрирован [ 2019-04-14 15:48 ] · 2E27686C2E137E7E77CA1E1B9A83D08711C6E184

Скачать .torrent

Скачать

15 KB

Статус: проверено
Скачан: 0 раз
Размер: 739 MB
terms.php
Профиль ЛС
Показать сообщения:    

Текущее время: 17-Ноя 05:36

Часовой пояс: UTC ± 0



Вы не можете начинать темы
Вы не можете отвечать на сообщения
Вы не можете редактировать свои сообщения
Вы не можете удалять свои сообщения
Вы не можете голосовать в опросах
Вы не можете прикреплять файлы к сообщениям
Вы можете скачивать файлы