Статистика раздачи
Размер:  2,18 GB   |    Зарегистрирован:  6 месяцев   |    Скачан:  0 раз

Полного источника не было: Никогда

   
 

Гость ®

Пол:
Не указан

Осенний марафон- Жанр: мелодрама, комедия
Год выпуска: 1979
Продолжительность: 01:28:42
Субтитры: русские, английские, французские-Режиссёр: Георгий Данелия-В ролях:
Олег Басилашвили, Наталья Гундарева, Евгений Леонов, Марина Неелова, Николай Крючков, Ольга Богданова, Борислав Брондуков, Владимир Фирсов, Владимир Грамматиков, Людмила Иванова, Норберт Кухинке, Галина Волчек
Описание:
У талантливого педагога и переводчика Бузыкина нерешительный характер. Он не может оставить жену и уйти к любимой женщине, не может отказать эксплуатирующей его талант сокурснице, терпит посещения доморощенного философа-алкаша, а когда, наконец, решается на смелый шаг - терпит фиаско, так как по природе мягок и податлив, как воск.-Исходник | Сэмпл | Кинопоиск-Качество видео: HDTVRip-AVC, спасибо MIFAL за исходник.
Формат видео: MKV
Видео: x264 (High@L4.1); 888x648, Display aspect ratio 4:3, 25.000 fps, 2842 Kbps
Аудио 1: AC-3; 16 bits 48 Khz; Mono 224 Kbps; CBR (DVD5 "КП")
Аудио 2: AC-3; 16 bits 48 Khz; 5.1ch 448 Kbps; CBR --"--
Формат субтитров: softsub (SRT)

MediaInfo

x264 log

avs [info]: 888x648p 1:1 @ 25/1 fps (cfr)
x264 [info]: using SAR=1/1
x264 [info]: using cpu capabilities: MMX2 SSE2Fast SSSE3 SSE4.2
x264 [info]: profile High, level 4.1
x264 [info]: frame I:685 Avg QP:15.53 size: 66612
x264 [info]: frame P:28074 Avg QP:17.43 size: 28374
x264 [info]: frame B:104336 Avg QP:18.87 size: 10053
x264 [info]: consecutive B-frames: 1.3% 2.4% 4.2% 26.8% 22.5% 24.1% 8.0% 8.6% 1.9% 0.1%
x264 [info]: mb I I16..4: 1.6% 89.6% 8.9%
x264 [info]: mb P I16..4: 0.6% 11.0% 0.7% P16..4: 40.3% 28.5% 17.6% 0.4% 0.1% skip: 0.8%
x264 [info]: mb B I16..4: 0.0% 0.7% 0.0% B16..8: 40.6% 12.9% 3.3% direct: 8.2% skip:34.2% L0:42.0% L1:45.5% BI:12.5%
x264 [info]: 8x8 transform intra:89.7% inter:60.8%
x264 [info]: direct mvs spatial:99.4% temporal:0.6%
x264 [info]: coded y,uvDC,uvAC intra: 92.9% 76.8% 44.3% inter: 35.1% 23.3% 5.9%
x264 [info]: i16 v,h,dc,p: 22% 17% 11% 50%
x264 [info]: i8 v,h,dc,ddl,ddr,vr,hd,vl,hu: 13% 11% 9% 9% 12% 12% 11% 11% 12%
x264 [info]: i4 v,h,dc,ddl,ddr,vr,hd,vl,hu: 15% 11% 3% 9% 14% 14% 12% 11% 11%
x264 [info]: i8c dc,h,v,p: 41% 24% 24% 11%
x264 [info]: Weighted P-Frames: Y:3.6% UV:1.3%
x264 [info]: ref P L0: 45.0% 10.7% 15.2% 5.8% 4.9% 3.7% 3.3% 2.0% 1.9% 1.7% 1.6% 1.4% 1.4% 1.3% 0.1% 0.0%
x264 [info]: ref B L0: 80.3% 8.7% 3.4% 1.7% 1.3% 1.1% 0.9% 0.6% 0.5% 0.5% 0.5% 0.3% 0.2%
x264 [info]: ref B L1: 96.2% 3.8%
x264 [info]: kb/s:2841.78
-General
Unique ID : 252181718236065033700223099191856807231 (0xBDB86EA8723F4DE8835D0E95195D3D3F)
Complete name : Осенний марафон.1979.HDTVRip.mkv
Format : Matroska
Format version : Version 2
File size : 2.18 GiB
Duration : 1 h 28 min
Overall bit rate : 3 515 kb/s
Encoded date : UTC 2019-04-08 18:59:51
Writing application : mkvmerge v7.8.0 ('River Man') 32bit built on Mar 27 2015 16:18:02
Writing library : libebml v1.3.1 + libmatroska v1.4.2
Video
ID : 1
Format : AVC
Format/Info : Advanced Video Codec
Format profile : High@L4.1
Format settings : CABAC / 14 Ref Frames
Format settings, CABAC : Yes
Format settings, ReFrames : 14 frames
Codec ID : V_MPEG4/ISO/AVC
Duration : 1 h 28 min
Bit rate : 2 842 kb/s
Width : 888 pixels
Height : 648 pixels
Display aspect ratio : 1.370
Frame rate mode : Constant
Frame rate : 25.000 FPS
Color space : YUV
Chroma subsampling : 4:2:0
Bit depth : 8 bits
Scan type : Progressive
Bits/(Pixel*Frame) : 0.198
Stream size : 1.72 GiB (79%)
Title : Осенний марафон.1979
Writing library : x264 core 152 r2851kMod ba24899
Encoding settings : cabac=1 / ref=14 / deblock=1:-2:-2 / analyse=0x3:0x133 / me=umh / subme=10 / psy=1 / fade_compensate=0.00 / psy_rd=1.00:0.00 / mixed_ref=1 / me_range=32 / chroma_me=1 / trellis=2 / 8x8dct=1 / cqm=0 / deadzone=21,11 / fast_pskip=0 / chroma_qp_offset=-2 / threads=12 / lookahead_threads=2 / sliced_threads=0 / nr=0 / decimate=0 / interlaced=0 / bluray_compat=0 / constrained_intra=0 / bframes=9 / b_pyramid=2 / b_adapt=2 / b_bias=0 / direct=3 / weightb=1 / open_gop=0 / weightp=2 / keyint=250 / keyint_min=25 / scenecut=40 / intra_refresh=0 / rc_lookahead=80 / rc=2pass / mbtree=0 / bitrate=2842 / ratetol=1.0 / qcomp=0.65 / qpmin=0 / qpmax=69 / qpstep=4 / cplxblur=20.0 / qblur=0.5 / vbv_maxrate=62500 / vbv_bufsize=78125 / nal_hrd=none / filler=0 / ip_ratio=1.25 / pb_ratio=1.25 / aq=3:0.80
Language : Russian
Default : Yes
Forced : No
Color range : Limited
Color primaries : BT.709
Transfer characteristics : BT.709
Matrix coefficients : BT.709
Audio #1
ID : 2
Format : AC-3
Format/Info : Audio Coding 3
Codec ID : A_AC3
Duration : 1 h 28 min
Bit rate mode : Constant
Bit rate : 224 kb/s
Channel(s) : 1 channel
Channel positions : Front: C
Sampling rate : 48.0 kHz
Frame rate : 31.250 FPS (1536 SPF)
Bit depth : 16 bits
Compression mode : Lossy
Stream size : 142 MiB (6%)
Title : AC-3; 16 bits 48 Khz; Mono 224 Kbps; CBR
Language : Russian
Service kind : Complete Main
Default : Yes
Forced : No
Audio #2
ID : 3
Format : AC-3
Format/Info : Audio Coding 3
Codec ID : A_AC3
Duration : 1 h 28 min
Bit rate mode : Constant
Bit rate : 448 kb/s
Channel(s) : 6 channels
Channel positions : Front: L C R, Side: L R, LFE
Sampling rate : 48.0 kHz
Frame rate : 31.250 FPS (1536 SPF)
Bit depth : 16 bits
Compression mode : Lossy
Stream size : 284 MiB (13%)
Title : AC-3; 16 bits 48 Khz; 5.1ch 448 Kbps; CBR
Language : Russian
Service kind : Complete Main
Default : No
Forced : No
Text #1
ID : 4
Format : UTF-8
Codec ID : S_TEXT/UTF8
Codec ID/Info : UTF-8 Plain Text
Language : Russian
Default : No
Forced : No
Text #2
ID : 5
Format : UTF-8
Codec ID : S_TEXT/UTF8
Codec ID/Info : UTF-8 Plain Text
Language : English
Default : No
Forced : No
Text #3
ID : 6
Format : UTF-8
Codec ID : S_TEXT/UTF8
Codec ID/Info : UTF-8 Plain Text
Language : French
Default : No
Forced : No
[cybertorrent.net].t2029.torrent 
Торрент: Зарегистрирован [ 2019-04-14 15:48 ] · E9C7FEB5A524875E2A15ECF1BB3769DC2A99D93C

Скачать .torrent

Скачать

11 KB

Статус: проверено
Скачан: 0 раз
Размер: 2,18 GB
terms.php
Показать сообщения:    

Текущее время: 15-Окт 07:06

Часовой пояс: UTC ± 0



Вы не можете начинать темы
Вы не можете отвечать на сообщения
Вы не можете редактировать свои сообщения
Вы не можете удалять свои сообщения
Вы не можете голосовать в опросах
Вы не можете прикреплять файлы к сообщениям
Вы можете скачивать файлы