Статистика раздачи
Размер:  5,75 GB   |    Зарегистрирован:  6 месяцев 2 дня   |    Скачан:  0 раз

Полного источника не было: Никогда

   
 

Гость ®

Пол:
Не указан

Роковой патруль | Doom Patrol- Год выпуска: 2019
Страна: США
Жанр: Фантастика, боевик, драма, приключения
Продолжительность: ~ 00:58:00-Перевод: Профессиональный (многоголосый закадровый) | Jaskier-Режиссёр: Крис Мэнли, Салли Ричардсон-Уитфилд, Глен Винтер-В ролях: Дайан Герерро, Эйприл Боулби, Мэтт Бомер, Тимоти Далтон, Райли Шэнэхэн, Мэттью Зук, Брендан Фрейзер, Алан Тьюдик, Джоиван Уэйд, Кайл Расселл Клементс-Описание: Сюжет повествует о супергероях, обретших сверхспособности в результате изувечивших их роковых случайностей. В состав необычной команды под руководством сумасшедшего учёного Найлза Колдера (также известного как Шеф) входят Роботмен, Негативный Человек, Безумная Джейн и Эластичная Женщина. Сломленные и искалеченные, эти люди находят применение своим способностям, защищая Землю от самых невероятных угроз. Роковой патруль — команда изгоев, воюющих за спасение мира, которому нет до них никакого дела.- -[box=#aed8ff,#003465]Ссылка на предыдущие и альтернативные раздачи[/box]-Качество: WEB-DLRip
Контейнер: AVI
Видео: XviD, 704x320 (2,2:1), 23.976 кадра/сек, ~1500 Кбит/сек
Аудио Rus: AC3, 48,0 kHz, 2 ch, 192 Кбит/сек | Jaskier
Аудио Eng: AC3, 48,0 kHz, 2 ch, 192 Кбит/сек
Субтитры: Русские, английские
Реклама: Отсутствует-

MediaInfo

Общее
Полное имя : E:\Doom Patrol (Season 1) WEB-DLRip\Doom.Patrol.S01E01.WEB-DLRip.[Wentworth_Miller].avi
Формат : AVI
Формат/Информация : Audio Video Interleave
Размер файла : 795 Мбайт
Продолжительность : 58 м. 31 с.
Общий поток : 1898 Кбит/сек
Программа кодирования : VirtualDubMod 1.5.10.3 | www.virtualdub-fr.org || (build 2550/release)
Библиотека кодирования : VirtualDubMod build 2550/release
Видео
Идентификатор : 0
Формат : MPEG-4 Visual
Профиль формата : Advanced Simple@L5
Настройки формата : BVOP2
Параметр BVOP формата : 2
Параметр QPel формата : Нет
Параметр GMC формата : Без точки перехода
Параметр матрицы формата : Default (MPEG)
Идентификатор кодека : XVID
Идентификатор кодека/Подсказка : XviD
Продолжительность : 58 м. 31 с.
Битрейт : 1500 Кбит/сек
Ширина : 704 пикселя
Высота : 320 пикселей
Соотношение сторон : 2,2:1
Частота кадров : 23,976 (24000/1001) кадра/сек
Цветовое пространство : YUV
Субдискретизация насыщенности : 4:2:0
Битовая глубина : 8 бит
Тип развёртки : Прогрессивная
Метод сжатия : С потерями
Бит/(Пиксели*Кадры) : 0.278
Размер потока : 628 Мбайт (79%)
Библиотека кодирования : XviD 1.2.1 (UTC 2008-12-04)
Аудио #1
Идентификатор : 1
Формат : AC-3
Формат/Информация : Audio Coding 3
Коммерческое название : Dolby Digital
Идентификатор кодека : 2000
Продолжительность : 58 м. 30 с.
Вид битрейта : Постоянный
Битрейт : 192 Кбит/сек
Каналы : 2 канала
Channel layout : L R
Частота : 48,0 КГц
Частота кадров : 31,250 кадров/сек (1536 SPF)
Битовая глубина : 16 бит
Метод сжатия : С потерями
Размер потока : 80,4 Мбайт (10%)
Выравнивание : Разделение по промежуткам
Продолжительность промежутка : 42 мс. (1,00 видеокадр)
Время предзагрузки промежутка : 500 мс.
ServiceKind/String : Complete Main
Аудио #2
Идентификатор : 2
Формат : AC-3
Формат/Информация : Audio Coding 3
Коммерческое название : Dolby Digital
Идентификатор кодека : 2000
Продолжительность : 58 м. 30 с.
Вид битрейта : Постоянный
Битрейт : 192 Кбит/сек
Каналы : 2 канала
Channel layout : L R
Частота : 48,0 КГц
Частота кадров : 31,250 кадров/сек (1536 SPF)
Битовая глубина : 16 бит
Метод сжатия : С потерями
Размер потока : 80,4 Мбайт (10%)
Выравнивание : Разделение по промежуткам
Продолжительность промежутка : 42 мс. (1,00 видеокадр)
Время предзагрузки промежутка : 500 мс.
ServiceKind/String : Complete Main
-

Скриншоты

-

Внимание! Раздача ведётся путём добавления новых серий

Внимание! Раздача ведётся путём добавления новых серий; при каждом добавлении создаётся новый торрент. Чтобы начать докачку новой серии, пользователям необходимо сделать следующее:
(1) остановить скачивание,
(2) удалить старый торрент у себя из клиента (старые серии удалять не надо),
(3) скачать новый торрент и запустить его у себя в клиенте вместо старого, при этом указать клиенту путь в старую папку куда и должно происходить скачивание новых серий.
Ваш клиент при этом должен произвести хеширование (проверку) старой папки (если не производит сам - помогите ему сделать это), и будет докачивать только те серии которых у вас ещё нет. Старые серии при этом не удаляются, а продолжают раздаваться!
Eсли вы уже удалили старые серии, то предотвратить повторную закачку старых серий можно, отжав галочку в соответствующих местах при запуске нового торрента. По возможности, желательно не удалять старые серии как можно дольше чтобы релизёр не столько продолжал раздавать старые серии, а смог сконцентрироваться на новых.
[cybertorrent.net].t2026.torrent 
Торрент: Зарегистрирован [ 2019-04-14 15:48 ] · 0E15A10CC74EBDCFDD1CAFC04DE525020C66C218

Скачать .torrent

Скачать

31 KB

Статус: проверено
Скачан: 0 раз
Размер: 5,75 GB
terms.php
Показать сообщения:    

Текущее время: 17-Окт 05:41

Часовой пояс: UTC ± 0



Вы не можете начинать темы
Вы не можете отвечать на сообщения
Вы не можете редактировать свои сообщения
Вы не можете удалять свои сообщения
Вы не можете голосовать в опросах
Вы не можете прикреплять файлы к сообщениям
Вы можете скачивать файлы