Статистика раздачи
Размер:  6,18 GB   |    Зарегистрирован:  7 месяцев 1 день   |    Скачан:  0 раз

Полного источника не было: Никогда

 
     
 
 

Гость ®

Пол:
Не указан

Как выйти замуж. Инструкция
Год выпуска: 2019
Производство: 1-2-3 Продакшн по заказу телеканала ТВ3
Жанр: комедия
Продолжительность: ~00:40:00 серия
Субтитры: нет
Режиссёр: Аксинья Гог
В ролях: Яна Гурьянова, Петар Зекавица, Ёла Санько, Владимир Жеребцов, Амбарцум Кабанян, Ольга Дибцева, Юрий Быков, Алексей Утин, Александр Самохин, Сергей Чирков, Алексей Литвиненко, Константин Чепурин

Описание: Главная героиня комедии «Как выйти замуж. Инструкция» — успешная, но очень одинокая журналистка Полина. После измены бывшего возлюбленного она боится заводить серьезные отношения с мужчинами, чтобы вновь не ошибиться с выбором. Однажды работа девушки приносит ей интересное знакомство и необычный подарок — магический браслет. С его помощью она может «примерить жизнь» с понравившимся ей мужчиной и перенестись на три года вперед, чтобы проверить, как сложится их совместное будущее. В итоге Полина отправляется в увлекательное путешествие по своим альтернативным судьбам, но поиски идеального жениха неожиданно затягиваются.

Реклама: Нет.
Кино-театр
Все раздачи сериала
Sample
Качество: WEBRip 1080p - Getty
Формат: MKV
Видео кодек: H.264
Аудио кодек: AC3
Видео: MPEG4 AVC Video, H264, 16:9, 1920x1080, 25 fps, ~5000 kbps, 0.096 bit/pixel
Аудио: AC3 Dolby Digital, 48.0 kHz, 2/0 (L,R) ch, 192 kbps

MI

General
Unique ID : 171424793822519650449980914506122767953 (0x80F736E083B8476B8284CE3E441DAE51)
Complete name : D:\Kak.vyyti.zamuzh.Instruktsiya.2018.WEB-DL.(1080p).Getty\Kak.vyyti.zamuzh.Instruktsiya.e01.2018.WEB-DL.(1080p).Getty.mkv
Format : Matroska
Format version : Version 4 / Version 2
File size : 1.44 GiB
Duration : 40 min 16 s
Overall bit rate mode : Constant
Overall bit rate : 5 134 kb/s
Movie name : Kak.vyyti.zamuzh.Instruktsiya.e01.2018.WEB-DL.(1080p).Getty
Encoded date : UTC 2019-04-12 20:18:39
Writing application : mkvmerge v7.8.0 ('River Man') 32bit built on Mar 27 2015 16:18:02
Writing library : libebml v1.3.1 + libmatroska v1.4.2
Video
ID : 1
Format : AVC
Format/Info : Advanced Video Codec
Format profile : Baseline@L4
Format settings : 4 Ref Frames
Format settings, CABAC : No
Format settings, ReFrames : 4 frames
Codec ID : V_MPEG4/ISO/AVC
Duration : 40 min 16 s
Bit rate mode : Constant
Bit rate : 5 000 kb/s
Width : 1 920 pixels
Height : 1 080 pixels
Display aspect ratio : 16:9
Frame rate mode : Constant
Frame rate : 25.000 FPS
Standard : PAL
Color space : YUV
Chroma subsampling : 4:2:0
Bit depth : 8 bits
Scan type : Progressive
Bits/(Pixel*Frame) : 0.096
Stream size : 1.39 GiB (96%)
Default : Yes
Forced : No
Color range : Limited
Color primaries : BT.709
Transfer characteristics : BT.709
Matrix coefficients : BT.709
Audio
ID : 2
Format : AC-3
Format/Info : Audio Coding 3
Codec ID : A_AC3
Duration : 40 min 16 s
Bit rate mode : Constant
Bit rate : 192 kb/s
Channel(s) : 2 channels
Channel positions : Front: L R
Sampling rate : 48.0 kHz
Frame rate : 31.250 FPS (1536 SPF)
Bit depth : 16 bits
Compression mode : Lossy
Stream size : 55.3 MiB (4%)
Service kind : Complete Main
Default : Yes
Forced : No

Скриншоты


[cybertorrent.net].t2023.torrent 
Торрент: Зарегистрирован [ 2019-04-13 17:23 ] · 3B1612B88EA9A7C10514C7763D2372ED24CAA661

Скачать .torrent

Скачать

32 KB

Статус: проверено
Скачан: 0 раз
Размер: 6,18 GB
terms.php
Показать сообщения:    

Текущее время: 14-Ноя 21:58

Часовой пояс: UTC ± 0



Вы не можете начинать темы
Вы не можете отвечать на сообщения
Вы не можете редактировать свои сообщения
Вы не можете удалять свои сообщения
Вы не можете голосовать в опросах
Вы не можете прикреплять файлы к сообщениям
Вы можете скачивать файлы