Статистика раздачи
Размер:  1,45 GB   |    Зарегистрирован:  8 месяцев 1 день   |    Скачан:  0 раз

Полного источника не было: Никогда

 
     
 
 

serzh ®

Пол:
Не указан
Стаж:
9 месяцев 2 дня
Сообщений:
415

Куджо / Cujo
«Now there is a new name for terror»
Страна: США
Жанр: Ужасы
Год выпуска: 1983
Продолжительность: 01:32:46
Перевод: Авторский (одноголосый закадровый) Александр Кашкин
Субтитры: нет
Оригинальная аудиодорожка: английский
Режиссер: Льюис Тиг / Lewis Teague
В ролях: Ди Уоллес-Стоун, Дэнни Пинтауро, Дэниэл Хью Келли, Кристофер Стоун, Эд Лотер,
Каюлани Ли, Билли Джейн, Миллс Уотсон, Сэнди Уорд, Джерри Хардин
Описание: Действие фильма происходит в тихом уголке Новой Англии, но никакой идиллии —
женщину и ее сына терроризирует собака. Огромный сенбернар по кличке Куджо, укушенный
летучей мышью…
Доп. информация: Дорожка с А. Кашкиным синхронизирована и наложена ale_x2008 при помощи Sony Vegas и VirtualDubMod.
За оцифрованную с VHS дорожку благодарим -Raptorio Rio
P.S. 00:10:13 - 00:11:02, 00:19:16 - 00:20:34, 00:31:23 - 00:31:48 - вставки с переводом Ю. Сербина.

Релиз
Сэмпл: https://yadi.sk/i/MVwZ78RZ00IPwA
Качество видео: BDRip
Формат видео: AVI
Видео: XviD build 65, 704x384 (1.83:1), 23.976 fps, 1651 kbps avg, 0.25 bit/pixel
Аудио: AC3 Dolby Digital, 48000Hz 2/0 (L,R) ch (mono), 192 kbps avg
Аудио 2: 48 kHz, AC3 Dolby Digital, 3/2 (L,C,R,l,r) + LFE ch, ~384 kbps Eng

MediaInfo

Куджо - Cujo (by ale_x2008).avi
Format : AVI
Format/Info : Audio Video Interleave
File size : 1.45 GiB
Duration : 1 h 32 min
Overall bit rate : 2 241 kb/s
Movie name : Куджо / Cujo (1983) BDRip
Director : by ale_X2008
Genre : ужасы, триллер
Writing application : VirtualDubMod 1.5.10.2 (build 2540/release)
Copyright : Edich2
Comment : RuTracker.org
Video
ID : 0
Format : MPEG-4 Visual
Format profile : Advanced Simple@L5
Format settings : BVOP1 / Custom Matrix
Format settings, BVOP : 1
Format settings, QPel : No
Format settings, GMC : No warppoints
Format settings, Matrix : Custom
Codec ID : XVID
Codec ID/Hint : XviD
Duration : 1 h 32 min
Bit rate : 1 651 kb/s
Width : 704 pixels
Height : 384 pixels
Display aspect ratio : 1.85:1
Frame rate : 23.976 (24000/1001) FPS
Color space : YUV
Chroma subsampling : 4:2:0
Bit depth : 8 bits
Scan type : Progressive
Compression mode : Lossy
Bits/(Pixel*Frame) : 0.255
Stream size : 1.07 GiB (74%)
Writing library : XviD 65
Audio #1
ID : 1
Format : AC-3
Format/Info : Audio Coding 3
Codec ID : 2000
Duration : 1 h 32 min
Bit rate mode : Constant
Bit rate : 192 kb/s
Channel(s) : 2 channels
Channel positions : Front: L R
Sampling rate : 48.0 kHz
Frame rate : 31.250 FPS (1536 SPF)
Bit depth : 16 bits
Compression mode : Lossy
Stream size : 127 MiB (9%)
Alignment : Split accross interleaves
Interleave, duration : 42 ms (1.00 video frame)
Interleave, preload duratio : 500 ms
Service kind : Complete Main
Audio #2
ID : 2
Format : AC-3
Format/Info : Audio Coding 3
Codec ID : 2000
Duration : 1 h 32 min
Bit rate mode : Constant
Bit rate : 384 kb/s
Channel(s) : 6 channels
Channel positions : Front: L C R, Side: L R, LFE
Sampling rate : 48.0 kHz
Frame rate : 31.250 FPS (1536 SPF)
Bit depth : 16 bits
Compression mode : Lossy
Stream size : 255 MiB (17%)
Alignment : Split accross interleaves
Interleave, duration : 42 ms (1.00 video frame)
Interleave, preload duratio : 500 ms
Service kind : Complete Main

Скриншоты


[cybertorrent.net].t2020.torrent 
Торрент: Зарегистрирован [ 2019-04-13 17:23 ] · BE821AFA0A803F5177975261A25AE3ACF39C63A8

Скачать .torrent

Скачать

15 KB

Статус: проверено
Скачан: 0 раз
Размер: 1,45 GB
terms.php
Профиль [ЛС]
Показать сообщения:    

Текущее время: 15-Дек 11:45

Часовой пояс: UTC ± 0



Вы не можете начинать темы
Вы не можете отвечать на сообщения
Вы не можете редактировать свои сообщения
Вы не можете удалять свои сообщения
Вы не можете голосовать в опросах
Вы не можете прикреплять файлы к сообщениям
Вы можете скачивать файлы