Статистика раздачи
Размер:  1,11 GB   |    Зарегистрирован:  7 месяцев   |    Скачан:  0 раз
Сидов:  62  [  0 KB/s  ]   Личеров:  3  [  0 KB/s  ]  
 
     
 
 

Гость ®

Пол:
Не указан

Московские тайны. Опасный переплет
Год выпуска: 2019
Производство: Приор Продакшн
Жанр: детектив
Продолжительность: ~00:44:00 серия
Субтитры: нет
Режиссёр: Антон Шарапов
В ролях: Анна Старшенбаум, Евгений Пронин, Александр Робак, Екатерина Семенова, Владислав Ветров, Алексей Лонгин

Описание: В Российской Государственной Библиотеке – знаменитой «Ленинке» – страшный переполох: молодой парень подошел сдать книгу и вдруг упал замертво. Налицо все признаки отравления. Что это – теракт в непосредственной близости от Кремля? Разборки наркоторговцев? Личная месть? Версии отпадают одна за другой, а следователю Насте Вяземской не дают покоя маленькие странности… Что за несуразная одежда висит в шкафу покойного? Зачем он записал телефон какой-то вахтерши? И если в его квартире нет ни одной книги, что ему понадобилось в «Ленинке»? Времени на долгие раздумья нет: неизвестно, где и как убитого настигла отрава, и кого она подстерегает еще.

Реклама: Нет.
Кинопоиск
Все раздачи сериала
Sample
Качество: WEBRip - Files-x
Формат: AVI
Видео кодек: XviD
Аудио кодек: AC3
Видео: 720x400 (1.80:1), 25 fps, XviD build 73 ~1600 kbps avg, 0.222 bit/pixel
Аудио: 48.0 kHz, AC3 Dolby Digital, 2/0 (L,R) ch, ~ 192 kbps

MI

General
Complete name : D:\Moskovskie.tayni.Opasnyi.pereplet.e2019.WEB-DLRip. Files-x\Moskovskie.tayni.Opasnyi.pereplet.e01.2019.WEB-DLRip. Files-x.avi
Format : AVI
Format/Info : Audio Video Interleave
File size : 573 MiB
Duration : 44 min 27 s
Overall bit rate : 1 803 kb/s
Writing application : VirtualDubMod 1.5.10.3 | www.virtualdub-fr.org || (build 2550/release)
Writing library : VirtualDubMod build 2550/release
Video
ID : 0
Format : MPEG-4 Visual
Format profile : Advanced Simple@L5
Format settings : BVOP1 / Custom Matrix
Format settings, BVOP : 1
Format settings, QPel : No
Format settings, GMC : No warppoints
Format settings, Matrix : Custom
Codec ID : XVID
Codec ID/Hint : XviD
Duration : 44 min 27 s
Bit rate : 1 601 kb/s
Width : 720 pixels
Height : 400 pixels
Display aspect ratio : 16:9
Frame rate : 25.000 FPS
Color space : YUV
Chroma subsampling : 4:2:0
Bit depth : 8 bits
Scan type : Progressive
Compression mode : Lossy
Bits/(Pixel*Frame) : 0.222
Stream size : 509 MiB (89%)
Writing library : XviD 73
Audio
ID : 1
Format : AC-3
Format/Info : Audio Coding 3
Codec ID : 2000
Duration : 44 min 27 s
Bit rate mode : Constant
Bit rate : 192 kb/s
Channel(s) : 2 channels
Channel positions : Front: L R
Sampling rate : 48.0 kHz
Frame rate : 31.250 FPS (1536 SPF)
Bit depth : 16 bits
Compression mode : Lossy
Stream size : 61.0 MiB (11%)
Alignment : Split accross interleaves
Interleave, duration : 40 ms (1.00 video frame)
Interleave, preload duratio : 500 ms
Service kind : Complete Main

Скриншоты


[cybertorrent.net].t2014.torrent 
Торрент: Зарегистрирован [ 2019-04-13 17:23 ] · 23B849888218C1F59EA5F0A34C1D3425F77C6A06

Скачать .torrent

Скачать

12 KB

Статус: проверено
Скачан: 0 раз
Размер: 1,11 GB
terms.php
Показать сообщения:    

Текущее время: 14-Ноя 04:27

Часовой пояс: UTC ± 0



Вы не можете начинать темы
Вы не можете отвечать на сообщения
Вы не можете редактировать свои сообщения
Вы не можете удалять свои сообщения
Вы не можете голосовать в опросах
Вы не можете прикреплять файлы к сообщениям
Вы можете скачивать файлы