Статистика раздачи
Размер:  1,42 GB   |    Зарегистрирован:  8 месяцев   |    Скачан:  0 раз

Полного источника не было: Никогда

 
     
 
 

serzh ®

Пол:
Не указан
Стаж:
9 месяцев 1 день
Сообщений:
384

Почти человек / Еще не человек / Not Quite Human
Страна: США
Жанр: фантастика, комедия, семейный
Год выпуска: 1987
Продолжительность: 01:30:51
Перевод: Профессиональный (дублированный) РТР
Субтитры: английские
Оригинальная аудиодорожка: английский
Режиссер: Стивен Хиллиард Штерн / Steven Hilliard Stern
В ролях: Джей Андервуд
Алан Тик
Робин Лайвли
Джозеф Болонья
Роберт Харпер
Кристи Суонсон
Лили Хейден
Брэндон Дуглас
Кэри Скотт
Брайан Коул
Описание: Доктор Джонас Карсон создаёт андроида с внешностью 17-летнего подростка. Юноша становится сыном изобретателя и старшим братом его дочери Бекки, которая даёт ему имя Чип. После переезда Карсонов в новый город, Чип поступает в среднюю школу вместе с Бекки. Доктор Карсон устраивается в эту же школу учителем, чтобы контролировать процесс обучения своего «сына».
Прежний работодатель доктора Карсона — Гордон Вогель — ищет возможность присвоить себе робота, так как уверен, что имеет права на разработку, поскольку доктор Карсон работал над ней в рамках так и не выполненного контракта. В планы Вогеля входит развить Чипа как военный проект.
Доп. информация: За раритетную дорожку РТР спасибо Giff91
Синхрон - Duckling
Релиз
ФИЛЬМ ИЗ РУБРИКИ ДИСНЕЙ ПО ПЯТНИЦАМ http://cybertorrent.ru/forum/viewtopic.php?t=5031088

Сэмпл: https://yadi.sk/i/tXAEOUxJktSb2Q
Качество видео: VHSRip-AVC
Формат видео: MKV
Видео: MPEG4 Video (H264) 710x478 (631:478) 29.97fps bit rate 2 230 kb/s
Аудио: Dolby AC3 48000Hz 256kbps Дубляж
Аудио 2: Dolby AC3 48000Hz 256kbps eng

MediaInfo

Еще не человек - Not Quite Human (1987) [by Duckling].mkv
Format : Matroska
Format version : Version 4 / Version 2
File size : 1.42 GiB
Duration : 1 h 30 min
Overall bit rate : 2 230 kb/s
Encoded date : UTC 2018-11-03 14:56:07 / UTC 2016-12-17T07:10:10Z
Writing application : mkvmerge v6.0.0 ('Coming Up For Air') built on Jan 20 2013 09:52:00
Writing library : libebml v1.3.0 + libmatroska v1.4.0 / Lavf55.12.0
Video
ID : 1
Format : AVC
Format/Info : Advanced Video Codec
Format profile : High@L3
Format settings : CABAC / 5 Ref Frames
Format settings, CABAC : Yes
Format settings, ReFrames : 5 frames
Codec ID : V_MPEG4/ISO/AVC
Bit rate : 1 674 kb/s
Width : 710 pixels
Height : 478 pixels
Display aspect ratio : 4:3
Frame rate mode : Variable
Color space : YUV
Chroma subsampling : 4:2:0
Bit depth : 8 bits
Scan type : Progressive
Writing library : x264 core 142 r2479 dd79a61
Encoding settings : cabac=1 / ref=6 / deblock=1:2:2 / analyse=0x3:0x133 / me=umh / subme=9 / psy=1 / psy_rd=1.00:0.00 / mixed_ref=1 / me_range=24 / chroma_me=1 / trellis=2 / 8x8dct=1 / cqm=0 / deadzone=21,11 / fast_pskip=0 / chroma_qp_offset=-2 / threads=12 / lookahead_threads=1 / sliced_threads=0 / nr=0 / decimate=1 / interlaced=0 / bluray_compat=0 / constrained_intra=0 / bframes=6 / b_pyramid=1 / b_adapt=2 / b_bias=0 / direct=3 / weightb=1 / open_gop=0 / weightp=2 / keyint=300 / keyint_min=30 / scenecut=40 / intra_refresh=0 / rc_lookahead=50 / rc=crf / mbtree=1 / crf=22.0 / qcomp=0.60 / qpmin=0 / qpmax=69 / qpstep=4 / ip_ratio=1.40 / aq=1:1.00
Default : Yes
Forced : No
Color range : Limited
Color primaries : BT.601 NTSC
Transfer characteristics : BT.709
Matrix coefficients : BT.601
Audio #1
ID : 2
Format : AC-3
Format/Info : Audio Coding 3
Codec ID : A_AC3
Duration : 1 h 30 min
Bit rate mode : Constant
Bit rate : 256 kb/s
Channel(s) : 2 channels
Channel positions : Front: L R
Sampling rate : 48.0 kHz
Frame rate : 31.250 FPS (1536 SPF)
Bit depth : 16 bits
Compression mode : Lossy
Delay relative to video : -125 ms
Stream size : 166 MiB (11%)
Title : Дубляж
Language : Russian
Service kind : Complete Main
Default : Yes
Forced : No
Audio #2
ID : 3
Format : AC-3
Format/Info : Audio Coding 3
Codec ID : A_AC3
Duration : 1 h 30 min
Bit rate mode : Constant
Bit rate : 256 kb/s
Channel(s) : 2 channels
Channel positions : Front: L R
Sampling rate : 48.0 kHz
Frame rate : 31.250 FPS (1536 SPF)
Bit depth : 16 bits
Compression mode : Lossy
Stream size : 166 MiB (11%)
Title : Stereo
Language : English
Service kind : Complete Main
Default : No
Forced : No
Text
ID : 4
Format : VobSub
Muxing mode : zlib
Codec ID : S_VOBSUB
Codec ID/Info : Picture based subtitle format used on DVDs
Language : English
Default : No
Forced : No
Menu
00:00:00.000 : :Chapter 1
00:10:00.391 : :Chapter 2
00:20:00.524 : :Chapter 3
00:30:00.607 : :Chapter 4
00:40:00.223 : :Chapter 5
00:50:00.322 : :Chapter 6
01:00:00.388 : :Chapter 7
01:10:00.496 : :Chapter 8
01:20:00.587 : :Chapter 9
01:30:02.689 : :Chapter 10
01:30:48.735 : :Chapter 11

Скриншоты


[cybertorrent.net].t2002.torrent 
Торрент: Зарегистрирован [ 2019-04-13 17:23 ] · 15D7BA70510A604492EC07446CEE4CF9454DA5FE

Скачать .torrent

Скачать

15 KB

Статус: проверено
Скачан: 0 раз
Размер: 1,42 GB
terms.php
Профиль [ЛС]
Показать сообщения:    

Текущее время: 14-Дек 01:35

Часовой пояс: UTC ± 0



Вы не можете начинать темы
Вы не можете отвечать на сообщения
Вы не можете редактировать свои сообщения
Вы не можете удалять свои сообщения
Вы не можете голосовать в опросах
Вы не можете прикреплять файлы к сообщениям
Вы можете скачивать файлы