Статистика раздачи
Размер:  1,36 GB   |    Зарегистрирован:  7 месяцев 29 дней   |    Скачан:  0 раз

Полного источника не было: Никогда

 
     
 
 

Гость ®

Пол:
Не указан

Пони с перебитым крылом / Пегас: Пони со сломанным крылом / Pegasus: Pony with a Broken Wing
Страна: США
Жанр: Семейный
Год выпуска: 2019
Продолжительность: 01:26:16
Перевод: Любительский (многоголосый закадровый) Синема УС
Субтитры: нет
Режиссер: Джорджо Серафини / Giorgio Serafini
В ролях: Джонатан Силвермен, Чаризма Карпентер, Том Арнольд, Элиза Джарретт, Джордан Эльсасс, Джонни Синклер Серафини, Дженнифер Гриффин, Эль Ламонт
Описание: Семья на грани потери своего ранчо случайно находит крылатого коня, который полностью меняет их жизнь. Сказка для тех взрослых, которые верят в чудеса.
Доп. информация: Без рекламы
фильм сделан в 2018г, первый показ 08.01.2019.
Сэмпл: https://www.sendspace.com/file/5orxzc
Качество видео: DVDRip
Формат видео: AVI
Видео: XviD, 720 х 400 пикс, 23,976 кадра/сек, 2062 Кбит/сек, 0.299 Бит/(Пиксели*Кадры)
Аудио: AC-3, 48,0 КГц, 192 Кбит/сек Постоянный, 2 канала Front: L R

MediaInfo

Общее
Полное имя : C:\фильмы\02 возможно для раздачи\Пони с перебитым крылом 2019г\Пони с перебитым крылом (2019г).avi
Формат : AVI
Формат/Информация : Audio Video Interleave
Размер файла : 1,36 Гбайт
Продолжительность : 1 ч. 26 м.
Общий поток : 2263 Кбит/сек
Видео
Идентификатор : 0
Формат : MPEG-4 Visual
Профиль формата : Simple@L3
Параметр BVOP формата : Нет
Параметр QPel формата : Нет
Параметр GMC формата : Без точки перехода
Параметр матрицы формата : Default (H.263)
Идентификатор кодека : XVID
Идентификатор кодека/Подсказка : XviD
Продолжительность : 1 ч. 26 м.
Битрейт : 2062 Кбит/сек
Ширина : 720 пикселей
Высота : 400 пикселей
Соотношение сторон : 16:9
Частота кадров : 23,976 кадра/сек
Цветовое пространство : YUV
Субдискретизация насыщенности : 4:2:0
Битовая глубина : 8 бит
Тип развёртки : Прогрессивная
Метод сжатия : С потерями
Бит/(Пиксели*Кадры) : 0.299
Размер потока : 1,24 Гбайт (91%)
Библиотека кодирования : XviD 67
Аудио
Идентификатор : 1
Формат : AC-3
Формат/Информация : Audio Coding 3
Расширение режима : CM (complete main)
Параметр Endianness формата : Big
Идентификатор кодека : 2000
Продолжительность : 1 ч. 26 м.
Вид битрейта : Постоянный
Битрейт : 192 Кбит/сек
Каналы : 2 канала
Расположение каналов : Front: L R
Частота : 48,0 КГц
Битовая глубина : 16 бит
Метод сжатия : С потерями
Размер потока : 118 Мбайт (8%)
Выравнивание : Соединение по промежуткам
Продолжительность промежутка : 42 мс. (1,00 видеокадр)

Скриншоты и скриншот названия


скриншот года выпуска

Предыдущие или аналогичные раздачи

пока нет

источник рипа

Близзардкидс
Огромное спасибо тому, кто выложил этот фильм
[cybertorrent.net].t199.torrent 
Торрент: Зарегистрирован [ 2019-03-18 10:04 ] · 0E4322DB971C96B36F07F7621C440D72D3037998

Скачать .torrent

Скачать

14 KB

Статус: проверено
Скачан: 0 раз
Размер: 1,36 GB
terms.php
Показать сообщения:    

Текущее время: 16-Ноя 21:50

Часовой пояс: UTC ± 0



Вы не можете начинать темы
Вы не можете отвечать на сообщения
Вы не можете редактировать свои сообщения
Вы не можете удалять свои сообщения
Вы не можете голосовать в опросах
Вы не можете прикреплять файлы к сообщениям
Вы можете скачивать файлы