Статистика раздачи
Размер:  1,46 GB   |    Зарегистрирован:  7 месяцев   |    Скачан:  0 раз
Сидов:  24  [  0 KB/s  ]  
 
     
 
 

солнышко ®

Пол:
Не указан
Стаж:
8 месяцев 1 день
Сообщений:
565

В поисках Стива Маккуина / Finding Steve McQueen
Страна: США
Жанр: криминал, мелодрама
Год выпуска: 2018
Продолжительность: 01:31:46-Перевод: Любительский (многоголосый закадровый) | HDrezka Studio
Субтитры: нет
Оригинальная аудиодорожка: нет-Режиссер: Марк Стивен Джонсон / Mark Steven Johnson-В ролях: Трэвис Фиммел, Уильям Фихтнер, Рэйчел Тейлор, Форест Уитакер, Лили Рэйб, Джейк Вири, Рис Койро, Джон Финн, Луис Ломбарди, Джоя Либардони-Описание: Действия фильма происходят в 1972 году накануне очередных выборов президента США. Шайка преступников решает совершить ограбление века и завладеть незаконным предвыборным фондом Ричарда Никсона. На кону оказывается огромная сума в тридцать миллионов долларов. Чтобы добиться успеха, преступникам необходимо продумать каждый свой шаг, каждое дыхание. Им удается придумать безупречный план, но в момент проведения операции, в дело вмешивается его величество случай. В итоге преступники не только упускают возможность обогатиться, но и оказываются в очень сложном положении. Теперь они готовы сделать все, чтобы не попасть в руки полиции...- -Качество видео: WEB-DLRip
Формат видео: AVI
Видео: 720x384 (1.88:1), 23.976 fps, XviD build 73 ~2069 kbps avg, 0.31 bit/pixel
Аудио: 48 kHz, AC3 Dolby Digital, 2/0 (L,R) ch, ~192 kbps-[box]Сэмпл[/box]-

MediaInfo

Код:Формат : AVI
Формат/Информация : Audio Video Interleave
Размер файла : 1,46 Гбайт
Продолжительность : 1 ч. 31 м.
Общий поток : 2271 Кбит/сек
Программа кодирования : VirtualDubMod 1.5.10.3 | www.virtualdub-fr.org || (build 2550/release)
Библиотека кодирования : VirtualDubMod build 2550/release
Видео
Идентификатор : 0
Формат : MPEG-4 Visual
Профиль формата : Advanced Simple@L5
Настройки формата : BVOP1 / Custom Matrix
Параметр BVOP формата : 1
Параметр QPel формата : Нет
Параметр GMC формата : Без точки перехода
Параметр матрицы формата : Выборочная
Идентификатор кодека : XVID
Идентификатор кодека/Подсказка : XviD
Продолжительность : 1 ч. 31 м.
Битрейт : 2069 Кбит/сек
Ширина : 720 пикселей
Высота : 384 пикселя
Соотношение сторон : 1,85:1
Частота кадров : 23,976 (24000/1001) кадра/сек
Цветовое пространство : YUV
Субдискретизация насыщенности : 4:2:0
Битовая глубина : 8 бит
Тип развёртки : Прогрессивная
Метод сжатия : С потерями
Бит/(Пиксели*Кадры) : 0.312
Размер потока : 1,33 Гбайт (91%)
Библиотека кодирования : XviD 73
Аудио
Идентификатор : 1
Формат : AC-3
Формат/Информация : Audio Coding 3
Коммерческое название : Dolby Digital
Идентификатор кодека : 2000
Продолжительность : 1 ч. 31 м.
Вид битрейта : Постоянный
Битрейт : 192 Кбит/сек
Каналы : 2 канала
Channel layout : L R
Частота : 48,0 КГц
Частота кадров : 31,250 кадров/сек (1536 SPF)
Битовая глубина : 16 бит
Метод сжатия : С потерями
Размер потока : 126 Мбайт (8%)
Выравнивание : Разделение по промежуткам
Продолжительность промежутка : 42 мс. (1,00 видеокадр)
Время предзагрузки промежутка : 500 мс.
ServiceKind/String : Complete Main

Скриншоты


При появлении проф. озвучки, перезалью.
[cybertorrent.net].t1989.torrent 
Торрент: Зарегистрирован [ 2019-04-13 17:23 ] · 3D7CABD3F3CD06CC75F0A74ED5D4A5F6D897859D

Скачать .torrent

Скачать

15 KB

Статус: проверено
Скачан: 0 раз
Размер: 1,46 GB
terms.php
Профиль ЛС
Показать сообщения:    

Текущее время: 14-Ноя 04:06

Часовой пояс: UTC ± 0



Вы не можете начинать темы
Вы не можете отвечать на сообщения
Вы не можете редактировать свои сообщения
Вы не можете удалять свои сообщения
Вы не можете голосовать в опросах
Вы не можете прикреплять файлы к сообщениям
Вы можете скачивать файлы