Статистика раздачи
Размер:  3,62 GB   |    Зарегистрирован:  7 месяцев 21 день   |    Скачан:  0 раз

Полного источника не было: Никогда

 
     
 
 

Гость ®

Пол:
Не указан

Тугой узел
Жанр: драма
Год выпуска: 1956
Продолжительность: 01:36:26
Режиссёр: Михаил Швейцер
В ролях: Виктор Авдюшко, Николай Сергеев, Олег Табаков, Владимир Емельянов, Павел Волков, Валентина Пугачева, Валентина Березуцкая, Петр Кирютин, Светлана Коновалова, Анатолий Дудоров, Николай Хрящиков, Григорий Михайлов, Елена Максимова
Описание: по мотивам одноименной повести Владимира Тендрякова.
Председатель колхоза Гмызин как может помогает Саше Комелеву, сыну недавно умершего секретаря райкома партии. Юноша поступает на заочное отделение института и начинает работать в колхозе. Появляется у него и любимая - черноглазая Катя… Новый секретарь райкома Мансуров сначала зажигает всех своей энергией, стремлением вывести район в передовые. Но вскоре многие осознают, что руководствуется он не уважением к людям, а лишь собственным честолюбием.
Доп. информация: запись потока *.ts со спутника Экспресс АМ6, 53° в.д., ремукс в *.mkv программой VideoReDo.
Качество видео: DVB
Формат видео: MKV
Видео: MPEG2 Video, 720x576@1024x576 (16:9), 25,000 кадров/сек, 5012 Кбит/сек
Аудио: MPEG Audio, 48,0 КГц, 256 Кбит/сек, 2 канала

MediaInfo

Общее
Уникальный идентификатор : 85545950275050607238115735062453972693 (0x405B8CFC59FB35255EBF5B57BBF86ED5)
Полное имя : D:\Torrent\ТУГОЙ УЗЕЛ 16Х9 (Kultura 53).mkv
Формат : Matroska
Версия формата : Version 2
Размер файла : 3,62 Гбайт
Продолжительность : 1 ч. 36 м.
Режим общего битрейта : Переменный
Общий поток : 5375 Кбит/сек
Программа кодирования : Lavf52.64.2
Библиотека кодирования : Lavf52.64.2
Видео
Идентификатор : 1
Формат : MPEG Video
Версия формата : Version 2
Профиль формата : Main@Main
Параметр BVOP формата : Да
Параметр матрицы формата : Выборочная
Параметр GOP формата : M=3, N=15
Структура изображения : Frame
Идентификатор кодека : V_MPEG2
Идентификатор кодека/Информация : MPEG 1 or 2 Video
Продолжительность : 1 ч. 36 м.
Вид битрейта : Переменный
Битрейт : 5012 Кбит/сек
Максимальный битрейт : 15,0 Мбит/сек
Ширина : 720 пикселей
Высота : 576 пикселей
Соотношение сторон : 16:9
Соотношение сторон в оригинале : 16:9
Режим частоты кадров : Постоянный
Частота кадров : 25,000 кадров/сек
Стандарт вещания : PAL
Цветовое пространство : YUV
Субдискретизация насыщенности : 4:2:0
Битовая глубина : 8 бит
Тип развёртки : Чересстрочная
Порядок развёртки : Верхнее поле первое
Метод сжатия : С потерями
Бит/(Пиксели*Кадры) : 0.483
Размер потока : 3,38 Гбайт (93%)
Default : Да
Forced : Нет
Аудио
Идентификатор : 2
Формат : MPEG Audio
Версия формата : Version 1
Профиль формата : Layer 2
Идентификатор кодека : A_MPEG/L2
Идентификатор кодека/Подсказка : MP2
Продолжительность : 1 ч. 36 м.
Вид битрейта : Постоянный
Битрейт : 256 Кбит/сек
Каналы : 2 канала
Частота : 48,0 КГц
Метод сжатия : С потерями
Задержка видео : 24 мс.
Размер потока : 177 Мбайт (5%)
Язык : English
Default : Да
Forced : Нет

Скриншоты

[cybertorrent.net].t1984.torrent 
Торрент: Зарегистрирован [ 2019-04-13 17:23 ] · A1299DDCFFE0A1802ED81E1477584987FE830CF0

Скачать .torrent

Скачать

19 KB

Статус: проверено
Скачан: 0 раз
Размер: 3,62 GB
terms.php
Показать сообщения:    

Текущее время: 05-Дек 15:58

Часовой пояс: UTC ± 0



Вы не можете начинать темы
Вы не можете отвечать на сообщения
Вы не можете редактировать свои сообщения
Вы не можете удалять свои сообщения
Вы не можете голосовать в опросах
Вы не можете прикреплять файлы к сообщениям
Вы можете скачивать файлы