Статистика раздачи
Размер:  14,15 GB   |    Зарегистрирован:  6 месяцев 29 дней   |    Скачан:  0 раз

Полного источника не было: Никогда

 
     
 
 

Гость ®

Пол:
Не указан

Спецназ | S.W.A.T Год выпуска: 2018
Страна: США
Жанр: боевик, триллер, драма, криминал, приключения.
Продолжительность: ~00:43:00 серия
Перевод: Профессиональный (многоголосый закадровый) NewStudio
Режиссёр: Билл Джирхарт, Джон Шоуолтер, Грег Биман
В ролях: Кенни Джонсон, Стефани Сигман, Шемар Мур, Дэвид Лим, Патрик Ст. Эсприт, Аарон Бледсо, Лина Эско, Луис Ферриньо мл., Джей Хэррингтон, Джим Гэррити.
Описание: Лейтенанту полицейского спецназа Даниэлю Харрельсону поручают возглавить отряд вышколенных профессионалов с крутым нравом и отсутствием щепетильности при выполнении заданий, он разрывается между лояльностью к происходящему на улицах и долгом перед своими коллегами. Свежесформированная команда — последняя надежда городских властей на восстановление правопорядка в Лос-Анджелесе.

Качество: WEB-DLRip
Формат: AVI
Видео: XviD, 720x400 (16:9), 23.976 fps, ~ 1999 kbps, 0.29 bit/pixel
Аудио 1: 48 kHz, AC3 Dolby Digital, 3/2 (L,C,R,l,r) + LFE ch, ~384 kbps |NewStudio|*
Аудио 2: 48 kHz, AC3 Dolby Digital, 3/2 (L,C,R,l,r) + LFE ch, ~384 kbps
Субтитры: Английские
Реклама: Отсутствует
* 2 ch (стерео) c 15 серии!

Релиз

Работа со звуком: Atla22

MediaInfo

Format : AVI
Format/Info : Audio Video Interleave
File size : 857 MiB
Duration : 43mn 2s
Overall bit rate : 2 782 Kbps
Movie name : S.W.A.T. 2х01: Шатающийся город
Director : Автор рипа: Бёдвар
Writing application : VirtualDubMod 1.5.10.3 (build 2550/release)
Comment : (WEB-DLRip 400p) 04.10.2018
Video
ID : 0
Format : MPEG-4 Visual
Format profile : Simple@L5
Format settings, BVOP : 1
Format settings, QPel : No
Format settings, GMC : No warppoints
Format settings, Matrix : Default (MPEG)
Codec ID : XVID
Codec ID/Hint : XviD
Duration : 43mn 2s
Bit rate : 2 000 Kbps
Width : 720 pixels
Height : 400 pixels
Display aspect ratio : 16:9
Frame rate : 23.976 (24000/1001) fps
Color space : YUV
Chroma subsampling : 4:2:0
Bit depth : 8 bits
Scan type : Progressive
Compression mode : Lossy
Bits/(Pixel*Frame) : 0.290
Stream size : 616 MiB (72%)
Writing library : XviD 67
Audio #1
ID : 1
Format : AC-3
Format/Info : Audio Coding 3
Mode extension : CM (complete main)
Format settings, Endianness : Big
Codec ID : 2000
Duration : 43mn 2s
Bit rate mode : Constant
Bit rate : 384 Kbps
Channel(s) : 6 channels
Channel positions : Front: L C R, Side: L R, LFE
Sampling rate : 48.0 KHz
Frame rate : 31.250 fps (1536 spf)
Compression mode : Lossy
Stream size : 118 MiB (14%)
Alignment : Split accross interleaves
Interleave, duration : 42 ms (1.00 video frame)
Interleave, preload duratio : 500 ms
Audio #2
ID : 2
Format : AC-3
Format/Info : Audio Coding 3
Mode extension : CM (complete main)
Format settings, Endianness : Big
Codec ID : 2000
Duration : 43mn 2s
Bit rate mode : Constant
Bit rate : 384 Kbps
Channel(s) : 6 channels
Channel positions : Front: L C R, Side: L R, LFE
Sampling rate : 48.0 KHz
Frame rate : 31.250 fps (1536 spf)
Compression mode : Lossy
Stream size : 118 MiB (14%)
Alignment : Split accross interleaves
Interleave, duration : 42 ms (1.00 video frame)
Interleave, preload duratio : 500 ms

Скриншоты

Внимание! Раздача ведётся путём добавления новых серий

Внимание! Раздача ведётся путём добавления новых серий; при каждом добавлении создаётся новый торрент. Чтобы начать докачку новой серии,пользователям необходимо сделать следующее:
(1) остановить скачивание,
(2) удалить старый торрент у себя из клиента (старые серии удалять не надо),
(3) скачать новый торрент и запустить его у себя в клиенте вместо старого, при этом указать клиенту путь в старую папку куда и должнопроисходить скачивание новых серий.
Ваш клиент при этом должен произвести хеширование (проверку) старой папки (если не производит сам - помогите ему сделать это), и будет докачивать только те серии
которых у вас ещё нет. Старые серии при этом не удаляются, а продолжают раздаваться!
Eсли вы уже удалили старые серии, то предотвратить повторную закачку старых серий можно, отжав галочку в соответствующих местах при запуске нового торрента.
По возможности, желательно не удалять старые серии как можно дольше чтобы релизёр не столько продолжал раздавать старые серии, а смог сконцентрироваться на новых.
Предыдущие и альтернативные раздачи
[cybertorrent.net].t1978.torrent 
Торрент: Зарегистрирован [ 2019-04-13 17:23 ] · B6DC2D620DA5CFAFAC8C0432F1758A5719078C85

Скачать .torrent

Скачать

39 KB

Статус: проверено
Скачан: 0 раз
Размер: 14,15 GB
terms.php
Показать сообщения:    

Текущее время: 13-Ноя 00:03

Часовой пояс: UTC ± 0



Вы не можете начинать темы
Вы не можете отвечать на сообщения
Вы не можете редактировать свои сообщения
Вы не можете удалять свои сообщения
Вы не можете голосовать в опросах
Вы не можете прикреплять файлы к сообщениям
Вы можете скачивать файлы