Статистика раздачи
Размер:  1,62 GB   |    Зарегистрирован:  7 месяцев 7 дней   |    Скачан:  0 раз

Полного источника не было: Никогда

 
     
 
 

serzh ®

Пол:
Не указан
Стаж:
8 месяцев 8 дней
Сообщений:
384

Папа Гринвич-Виллидж / The Pope of Greenwich Village
Страна: США
Жанр: боевик, драма, комедия, криминал
Годы выпуска: 1984
Продолжительность: 02:00:38
Перевод 1: Профессиональный (двухголосый закадровый) НТВ+
Перевод 2: Авторский (одноголосый закадровый) Пронин Антон отдельным файлом
Субтитры: нет
Оригинальная аудиодорожка: нет
Режиссер: Стюарт Розенберг / Stuart Rosenberg
В ролях: Эрик Робертс, Микки Рурк, Дэрил Ханна, Джеральдин Пейдж, Кеннет МакМиллан, Тони Мусанте, М. Эммет Уолш, Берт Янг
Описание: Поли и Чарли были друзьями детства. Чарли не раз вытаскивал своего приятеля из всяческих дерьмовых историй, и не случайно однажды именно он решил организовать ограбление одной частной фирмы, чтобы доказать Чарли наличие у себя кое-каких способностей. Поли умолчал об одном — о том, что избранная им фирма служила лишь ширмой-прикрытием для махинаций местного мафиози «Постельного Клопа» Эдди…
Доп. информация:
Качество видео: BDRip | Spiellberg/1080p BD-Remux
Формат видео: AVI
Видео: 704x384 (1.83:1), 23.976 fps, XviD build 73 ~1530 kbps avg, 0.24 bit/pixel
Аудио 1: 48 kHz, AC3 Dolby Digital, 2/0 (L,R) ch, ~192 kbps НТВ+
Аудио 2: 48 kHz, AC3 Dolby Digital, 2/0 (L,R) ch, ~192 kbps Пронин отдельным файлом

MediaInfo

General
Complete name : C:\Users\User\Desktop\The.Pope.of.Greenwich.Village.1984.BDRip.DVO_by_LBS.avi
Format : AVI
Format/Info : Audio Video Interleave
File size : 1.46 GiB
Duration : 2h 0mn
Overall bit rate : 1 731 Kbps
Director : Last Boy Scout
Writing application : VirtualDubMod 1.5.10.3 | www.virtualdub-fr.org || (build 2550/release)
Copyright : rutracker.org 13.04.2016
Comment : BDRip DVO (НТВ+)
Video
ID : 0
Format : MPEG-4 Visual
Format profile : Advanced Simple@L5
Format settings, BVOP : 1
Format settings, QPel : No
Format settings, GMC : No warppoints
Format settings, Matrix : Custom
Codec ID : XVID
Codec ID/Hint : XviD
Duration : 2h 0mn
Bit rate : 1 530 Kbps
Width : 704 pixels
Height : 384 pixels
Display aspect ratio : 1.85:1
Frame rate : 23.976 fps
Color space : YUV
Chroma subsampling : 4:2:0
Bit depth : 8 bits
Scan type : Progressive
Compression mode : Lossy
Bits/(Pixel*Frame) : 0.236
Stream size : 1.29 GiB (88%)
Writing library : XviD 73
Audio
ID : 1
Format : AC-3
Format/Info : Audio Coding 3
Mode extension : CM (complete main)
Format settings, Endianness : Big
Codec ID : 2000
Duration : 2h 0mn
Bit rate mode : Constant
Bit rate : 192 Kbps
Channel(s) : 2 channels
Channel positions : Front: L R
Sampling rate : 48.0 KHz
Bit depth : 16 bits
Compression mode : Lossy
Stream size : 166 MiB (11%)
Alignment : Split accross interleaves
Interleave, duration : 42 ms (1.00 video frame)
Interleave, preload duration : 500 ms

Скриншоты

-
[cybertorrent.net].t1974.torrent 
Торрент: Зарегистрирован [ 2019-04-13 17:23 ] · 165E4015D0000B2A21AE6C0725441FCB171E275C

Скачать .torrent

Скачать

17 KB

Статус: проверено
Скачан: 0 раз
Размер: 1,62 GB
terms.php
Профиль [ЛС]
Показать сообщения:    

Текущее время: 21-Ноя 10:06

Часовой пояс: UTC ± 0



Вы не можете начинать темы
Вы не можете отвечать на сообщения
Вы не можете редактировать свои сообщения
Вы не можете удалять свои сообщения
Вы не можете голосовать в опросах
Вы не можете прикреплять файлы к сообщениям
Вы можете скачивать файлы