Статистика раздачи
Размер:  1,38 GB   |    Зарегистрирован:  8 месяцев 3 дня   |    Скачан:  0 раз

Полного источника не было: Никогда

 
     
 
 

Гость ®

Пол:
Не указан

Девушка без адреса
Жанр: комедия, мелодрама
Год выпуска: 1957
Продолжительность: 01:25:09
Режиссёр: Эльдар Рязанов
В ролях: Светлана Карпинская, Николай Рыбников (I), Эраст Гарин, Рина Зелёная, Ольга Аросева, Лидия Королёва, Юрий Белов, Зоя Фёдорова, Сергей Филиппов, Георгий Георгиу, Георгий Тусузов, Татьяна Гурецкая, Павел Тарасов, Евгений Гуров, Светлана Харитонова, Валентина Ананьина, Владимир Пицек, Владимир Абрамов, Ирина Мурзаева, Николай Чистяков, Пётр Репнин, Леонид Чубаров, Пётр Савин, Георгий Куликов, Василий Топорков
Описание: Забавные приключения молодого строителя Пашки Гусарова начались с того момента, как в поезде он встретил и полюбил Катю. Счастье делает человека беспечным, и на вокзале его ждет множество необычных событий. Однако именно здесь влюбленные встречаются вновь, и больше уже не расстаются.
Доп. информация: Автор релиза -
Источник субтитров и видео для рипа - DVB 576i TS - моя запись с канала "ТВ Центр"
Редактор русских субтитров - Гостева Е.В. / "ТВ Центр", 2017г.



Сэмпл: http://multi-up.com/1219663
Рекламы нет!
Качество видео: SATRip
Формат видео: AVI
Видео: XviD, 720x432 (5:3), 2111 kbps, 25.000 fps, 0.271 bit/pixel
Аудио: Русский АC3, 48000 Гц, 2ch, 192 kbps
Формат субтитров: softsub (SRT) - внешние

MediaInfo

Общее
Полное имя : D:\Девушка.без.адреса.1957.SATRip-ylnian\Девушка.без.адреса.1957.SATRip-ylnian.avi
Формат : AVI
Формат/Информация : Audio Video Interleave
Размер файла : 1,38 Гбайт
Продолжительность : 1 ч. 25 м.
Общий поток : 2312 Кбит/сек
Программа кодирования : VirtualDubMod 1.5.10.3 | www.virtualdub-fr.org || (build 2550/release)
Библиотека кодирования : VirtualDubMod build 2550/release
Видео
Идентификатор : 0
Формат : MPEG-4 Visual
Профиль формата : Advanced Simple@L5
Настройки формата : BVOP1 / Custom Matrix
Параметр BVOP формата : 1
Параметр QPel формата : Нет
Параметр GMC формата : Без точки перехода
Параметр матрицы формата : Выборочная
Идентификатор кодека : XVID
Идентификатор кодека/Подсказка : XviD
Продолжительность : 1 ч. 25 м.
Битрейт : 2111 Кбит/сек
Ширина : 720 пикселей
Высота : 432 пикселя
Соотношение сторон : 5:3
Частота кадров : 25,000 кадров/сек
Цветовое пространство : YUV
Субдискретизация насыщенности : 4:2:0
Битовая глубина : 8 бит
Тип развёртки : Прогрессивная
Метод сжатия : С потерями
Бит/(Пиксели*Кадры) : 0.271
Размер потока : 1,26 Гбайт (91%)
Библиотека кодирования : XviD 67
Аудио
Идентификатор : 1
Формат : AC-3
Формат/Информация : Audio Coding 3
Коммерческое название : Dolby Digital
Идентификатор кодека : 2000
Продолжительность : 1 ч. 25 м.
Вид битрейта : Постоянный
Битрейт : 192 Кбит/сек
Каналы : 2 канала
Channel layout : L R
Частота : 48,0 КГц
Частота кадров : 31,250 кадров/сек (1536 SPF)
Битовая глубина : 16 бит
Метод сжатия : С потерями
Размер потока : 117 Мбайт (8%)
Выравнивание : Разделение по промежуткам
Продолжительность промежутка : 40 мс. (1,00 видеокадр)
Время предзагрузки промежутка : 500 мс.
ServiceKind/String : Complete Main
Общее
Полное имя : D:\Девушка.без.адреса.1957.SATRip-ylnian\Девушка.без.адреса.1957.SATRip-ylnian_rus.srt
Размер файла : 117 Кбайт

Сравнение

Для показа по ТВ был использован иной исходник, чем для выпуска DVD: меньше дефектов плёнки, лучше цветопередача, больше полезная площадь кадра по бокам, но подрезана картинка сверху и снизу, меньше резкость изображения
Сравнение с DVDRip-ом by intellect - http://screenshotcomparison.com/comparison/127303
[cybertorrent.net].t196.torrent 
Торрент: Зарегистрирован [ 2019-03-18 10:04 ] · E11E8067A5F4B90D886AFAFEEEFDF3A376DD2DE0

Скачать .torrent

Скачать

14 KB

Статус: проверено
Скачан: 0 раз
Размер: 1,38 GB
terms.php
Показать сообщения:    

Текущее время: 22-Ноя 08:01

Часовой пояс: UTC ± 0



Вы не можете начинать темы
Вы не можете отвечать на сообщения
Вы не можете редактировать свои сообщения
Вы не можете удалять свои сообщения
Вы не можете голосовать в опросах
Вы не можете прикреплять файлы к сообщениям
Вы можете скачивать файлы