Статистика раздачи
Размер:  1,46 GB   |    Зарегистрирован:  7 месяцев 1 день   |    Скачан:  0 раз
Сидов:  10  [  0 KB/s  ]   Личеров:  3  [  0 KB/s  ]  
 
     
 
 

Гость ®

Пол:
Не указан

Сын Америки / Native Son
Страна: США
Жанр: драма
Год выпуска: 2019
Продолжительность: 01:43:48
Перевод: Профессиональный (многоголосый закадровый) Amedia
Субтитры: нет
Оригинальная аудиодорожка: английский
Режиссер: Рашид Джонсон / Rashid Johnson
В ролях: Ник Дж. Робинсон
Маргарет Куэлли
Кики Лэйн
Стивен Хендерсон
Санаа Лэтэн
Эштон Сандерс
Элизабет Марвел
Дэвид Алан Грир
Джерод Хэйнс
Билл Кэмп
Описание: События ленты разворачиваются вокруг молодого афроамериканца, которому удается пробиться в высшую лигу, став личным водителем для богатой белой семьи. Заработав себе идеальную репутацию, он внезапно влюбляется в дочку своих работодателей, чем запускает цепочку, которая приведет его жизнь к тотальному хаосу.
Сэмпл: http://multi-up.com/1229175
Качество видео: WEB-DLRip
Формат видео: AVI
Видео: MPEG4, XviD, 720x304 (2.35:1), 23.976 fps, 1 418 Kbps (0.270 bit/pixel)
Аудио: AC-3, 48.0 KHz, 2 ch, 192 Kbps, CBR - русский
Аудио 2: AC-3, 48.0 KHz, 6 ch, 384 Kbps, CBR - английский

MediaInfo

Общее
Полное имя : F:\Сын Америки.avi
Формат : AVI
Формат/Информация : Audio Video Interleave
Размер файла : 1,46 Гбайт
Продолжительность : 1 ч. 43 м.
Общий поток : 2008 Кбит/сек
Название фильма : Сын Америки / Native Son (2019)
Программа кодирования : VirtualDubMod 1.5.10.2 (build 2540/release)
Библиотека кодирования : VirtualDubMod build 2540/release
Авторское право : miha2154
Видео
Идентификатор : 0
Формат : MPEG-4 Visual
Профиль формата : Advanced Simple@L5
Настройки формата : BVOP1 / Custom Matrix
Параметр BVOP формата : 1
Параметр QPel формата : Нет
Параметр GMC формата : Без точки перехода
Параметр матрицы формата : Выборочная
Идентификатор кодека : XVID
Идентификатор кодека/Подсказка : XviD
Продолжительность : 1 ч. 43 м.
Битрейт : 1418 Кбит/сек
Ширина : 720 пикселей
Высота : 304 пикселя
Соотношение сторон : 2,35:1
Частота кадров : 23,976 (24000/1001) кадра/сек
Цветовое пространство : YUV
Субдискретизация насыщенности : 4:2:0
Битовая глубина : 8 бит
Тип развёртки : Прогрессивная
Метод сжатия : С потерями
Бит/(Пиксели*Кадры) : 0.270
Размер потока : 1,03 Гбайт (71%)
Библиотека кодирования : XviD 65
Аудио #1
Идентификатор : 1
Формат : AC-3
Формат/Информация : Audio Coding 3
Коммерческое название : Dolby Digital
Идентификатор кодека : 2000
Продолжительность : 1 ч. 43 м.
Вид битрейта : Постоянный
Битрейт : 192 Кбит/сек
Каналы : 2 канала
Channel layout : L R
Частота : 48,0 КГц
Частота кадров : 31,250 кадров/сек (1536 SPF)
Битовая глубина : 16 бит
Метод сжатия : С потерями
Размер потока : 143 Мбайт (10%)
Выравнивание : Разделение по промежуткам
Продолжительность промежутка : 42 мс. (1,00 видеокадр)
Время предзагрузки промежутка : 500 мс.
Заголовок : Профессиональный (многоголосый, закадровый) Amedia Premium
ServiceKind/String : Complete Main
Аудио #2
Идентификатор : 2
Формат : AC-3
Формат/Информация : Audio Coding 3
Коммерческое название : Dolby Digital
Идентификатор кодека : 2000
Продолжительность : 1 ч. 43 м.
Вид битрейта : Постоянный
Битрейт : 384 Кбит/сек
Каналы : 6 каналов
Channel layout : L R C LFE Ls Rs
Частота : 48,0 КГц
Частота кадров : 31,250 кадров/сек (1536 SPF)
Битовая глубина : 16 бит
Метод сжатия : С потерями
Размер потока : 285 Мбайт (19%)
Выравнивание : Разделение по промежуткам
Продолжительность промежутка : 42 мс. (1,00 видеокадр)
Время предзагрузки промежутка : 500 мс.
Заголовок : Английский
ServiceKind/String : Complete Main

Скриншот c названием фильма

Скриншоты


[cybertorrent.net].t1958.torrent 
Торрент: Зарегистрирован [ 2019-04-12 16:55 ] · 4F22B7A770F0AF4813FAE5E59CAA463FD1AE35AC

Скачать .torrent

Скачать

15 KB

Статус: проверено
Скачан: 0 раз
Размер: 1,46 GB
terms.php
Показать сообщения:    

Текущее время: 14-Ноя 04:03

Часовой пояс: UTC ± 0



Вы не можете начинать темы
Вы не можете отвечать на сообщения
Вы не можете редактировать свои сообщения
Вы не можете удалять свои сообщения
Вы не можете голосовать в опросах
Вы не можете прикреплять файлы к сообщениям
Вы можете скачивать файлы