Статистика раздачи
Размер:  205 MB   |    Зарегистрирован:  6 месяцев 26 дней   |    Скачан:  0 раз

Полного источника не было: Никогда

   
 

Гость ®

Пол:
Не указан

Мурзилка в Африке / Мурзілка в Африці
Страна: СССР (Украинская республика)
Жанр: мультфильм
Продолжительность: 00:11:37
Год выпуска: 1934
Перевод: не требуется
Русские субтитры: нет
Режиссёры: Евгений Горбач, Семен Гуецкий / Євген Горбач, Семен Гуецький
Описание: Пионеры-авиамоделисты Мурзилка и Знайка, узнав из журнала "Пионер" о том, что в Африке "дети тяжело работают", отправляются туда на своём самолёте, чтобы спасти негритёнка из рабства.
Доп. информация: Оцифровка с киноплёнки Дмитрий Корнеев
Качество: WEBRip
Формат: AVI
Видео: 2396 kbps, 656х544 (1.206), 24.000 fps, MPEG-4 Visual (XviD)
Аудио: 128 kbps, 44.1 kHz, 2 channels, MPEG Audio (MP3)
Субтитры: отсутствуют

Подробные технические данные

General
Complete name : Мурзилка в Африке (1934).avi
Format : AVI
Format/Info : Audio Video Interleave
File size : 205 MiB
Duration : 11mn 17s
Overall bit rate : 2 536 Kbps
Writing application : Lavf55.19.104
Writing library : VirtualDub build 35491/release
Video
ID : 0
Format : MPEG-4 Visual
Format profile : Advanced Simple@L5
Format settings, BVOP : 2
Format settings, QPel : No
Format settings, GMC : No warppoints
Format settings, Matrix : Default (H.263)
Codec ID : XVID
Codec ID/Hint : XviD
Duration : 11mn 17s
Bit rate : 2 396 Kbps
Width : 656 pixels
Height : 544 pixels
Display aspect ratio : 1.206
Frame rate : 24.000 fps
Color space : YUV
Chroma subsampling : 4:2:0
Bit depth : 8 bits
Scan type : Progressive
Compression mode : Lossy
Bits/(Pixel*Frame) : 0.280
Stream size : 193 MiB (94%)
Writing library : XviD 73
Audio
ID : 1
Format : MPEG Audio
Format version : Version 1
Format profile : Layer 3
Mode : Joint stereo
Mode extension : MS Stereo
Codec ID : 55
Codec ID/Hint : MP3
Duration : 11mn 17s
Bit rate mode : Constant
Bit rate : 128 Kbps
Channel(s) : 2 channels
Sampling rate : 44.1 KHz
Compression mode : Lossy
Stream size : 10.3 MiB (5%)
Alignment : Aligned on interleaves
Interleave, duration : 26 ms (0.63 video frame)
Interleave, preload duration : 521 ms

Скриншоты

[cybertorrent.net].t195.torrent 
Торрент: Зарегистрирован [ 2019-03-18 10:04 ] · 7BA4AEB044DA06DEC0D9572CDB42B69E3C4983A3

Скачать .torrent

Скачать

17 KB

Статус: проверено
Скачан: 0 раз
Размер: 205 MB
terms.php
Показать сообщения:    

Текущее время: 13-Окт 23:45

Часовой пояс: UTC ± 0



Вы не можете начинать темы
Вы не можете отвечать на сообщения
Вы не можете редактировать свои сообщения
Вы не можете удалять свои сообщения
Вы не можете голосовать в опросах
Вы не можете прикреплять файлы к сообщениям
Вы можете скачивать файлы