Статистика раздачи
Размер:  743 MB   |    Зарегистрирован:  6 месяцев 4 дня   |    Скачан:  0 раз

Полного источника не было: Никогда

   
 

солнышко ®

Пол:
Не указан
Стаж:
7 месяцев 4 дня
Сообщений:
565

Кадавр / The Possession of Hannah Grace
Страна: США
Жанр: ужасы, триллер, детектив
Год выпуска: 2018
Продолжительность: 01:25:44-Перевод: Профессиональный (полное дублирование) | BD EUR
Субтитры: нет
Оригинальная аудиодорожка: нет-Режиссер: Дидерик Ван Ружен / Diederik Van Rooijen-В ролях: Шэй Митчелл, Стана Катик, Грэй Дэймон, Кирби Джонсон, Ник Тун, Луис Хертэм, Максимиллиан МакНамара, Джейкоб Минг-Трент, Джеймс А. Уотсон мл., Марианн Байяр-Описание: Во время обряда экзорцизма одержимая Ханна Грэйс убивает священника, после чего её отец сам душит дочь подушкой. Бывшая полицейская Меган Рид посещает группу анонимных алкоголиков, но никак не может избавиться от видений прошлого. Она устраивается работать по ночам в морг городской больницы Бостона, и в первую же смену туда поступает изуродованное тело девушки. Вскоре Меган начинает казаться, что в пустых коридорах морга кто-то есть, и с этим телом определённо что-то не так.- -Качество видео: BDRip | The.Possession.of.Hannah.Grace.2018.1080p.BluRay.AVC.DTS-HD.MA.5.1-FGT
Формат видео: AVI
Видео: 688x288 (2.39:1), 23.976 fps, XviD build 73 ~1073 kbps avg, 0.23 bit/pixel
Аудио: 48 kHz, MPEG Layer 3, 2 ch, ~128.00 kbps avg-[box]Сэмпл[/box]-

MediaInfo

Код:Формат : AVI
Формат/Информация : Audio Video Interleave
Размер файла : 743 Мбайт
Продолжительность : 1 ч. 25 м.
Общий поток : 1211 Кбит/сек
Программа кодирования : VirtualDubMod 1.5.10.3 | www.virtualdub-fr.org || (build 2550/release)
Библиотека кодирования : VirtualDubMod build 2550/release
Видео
Идентификатор : 0
Формат : MPEG-4 Visual
Профиль формата : Advanced Simple@L5
Настройки формата : BVOP1 / Custom Matrix
Параметр BVOP формата : 1
Параметр QPel формата : Нет
Параметр GMC формата : Без точки перехода
Параметр матрицы формата : Выборочная
Идентификатор кодека : XVID
Идентификатор кодека/Подсказка : XviD
Продолжительность : 1 ч. 25 м.
Битрейт : 1074 Кбит/сек
Ширина : 688 пикселей
Высота : 288 пикселей
Соотношение сторон : 2,40:1
Частота кадров : 23,976 (24000/1001) кадра/сек
Цветовое пространство : YUV
Субдискретизация насыщенности : 4:2:0
Битовая глубина : 8 бит
Тип развёртки : Прогрессивная
Метод сжатия : С потерями
Бит/(Пиксели*Кадры) : 0.226
Размер потока : 658 Мбайт (89%)
Библиотека кодирования : XviD 73
Аудио
Идентификатор : 1
Формат : MPEG Audio
Версия формата : Version 1
Профиль формата : Layer 3
Идентификатор кодека : 55
Идентификатор кодека/Подсказка : MP3
Продолжительность : 1 ч. 25 м.
Вид битрейта : Постоянный
Битрейт : 128 Кбит/сек
Каналы : 2 канала
Частота : 48,0 КГц
Частота кадров : 41,667 кадра/сек (1152 SPF)
Метод сжатия : С потерями
Размер потока : 78,5 Мбайт (11%)
Выравнивание : Соединение по промежуткам
Продолжительность промежутка : 42 мс. (1,00 видеокадр)
Время предзагрузки промежутка : 504 мс.
Библиотека кодирования : LAME3.99r
Настройки программы : -m s -V 4 -q 2 -lowpass 17 -b 128

Скриншоты


[cybertorrent.net].t1946.torrent 
Торрент: Зарегистрирован [ 2019-04-12 16:55 ] · D3E3E4F9305C6F620FAD0403853326C274E47889

Скачать .torrent

Скачать

15 KB

Статус: проверено
Скачан: 0 раз
Размер: 743 MB
terms.php
Профиль ЛС
Показать сообщения:    

Текущее время: 17-Окт 05:02

Часовой пояс: UTC ± 0



Вы не можете начинать темы
Вы не можете отвечать на сообщения
Вы не можете редактировать свои сообщения
Вы не можете удалять свои сообщения
Вы не можете голосовать в опросах
Вы не можете прикреплять файлы к сообщениям
Вы можете скачивать файлы