Статистика раздачи
Размер:  128 MB   |    Зарегистрирован:  8 месяцев 4 дня   |    Скачан:  0 раз

Полного источника не было: Никогда

 
     
 
 

Гость ®

Пол:
Не указан

Сафари / Safary
Страна: Украина
Жанр: мультфильм
Продолжительность: 00:12:45
Год выпуска: 1996
Перевод: субтитры (alex.n42)
Русские субтитры: есть
Режиссёр: Н. Чурилова
Описание: Четвёртый мультфильм о приключениях собачки по имени Муви.
Муви как журналистка отправляется в Африку снимать фильм про зверей, но там ей предстоит вступить в борьбу с браконьерами, которые пытаются отловить этих зверей для продажи в зоопарки.
Предыдущие фильмы из этой серии:
Новогоднее приключение Муви (1993) - http://cybertorrent.ru/forum/viewtopic.php?t=5667322
Муви - няня (1994) - http://cybertorrent.ru/forum/viewtopic.php?t=5667794
Ралли (1994) - http://cybertorrent.ru/forum/viewtopic.php?t=5668282
Качество: WEBRip
Формат: AVI
Видео: 1266 kbps, 592х464 (1.276), 25.000 fps, MPEG-4 Visual (XviD)
Аудио: 128 kbps, 44.1 kHz, 2 channels, MPEG Audio (MP3)
Субтитры: softsub (SRT)

Подробные технические данные

General
Complete name : Сафари (1996).avi
Format : AVI
Format/Info : Audio Video Interleave
File size : 128 MiB
Duration : 12mn 45s
Overall bit rate : 1 404 Kbps
Writing application : VirtualDubMod 1.5.10.2 (build 2540/release)
Writing library : VirtualDub build 35491/release
Video
ID : 0
Format : MPEG-4 Visual
Format profile : Advanced Simple@L4
Format settings, BVOP : 2
Format settings, QPel : No
Format settings, GMC : No warppoints
Format settings, Matrix : Default (H.263)
Codec ID : XVID
Codec ID/Hint : XviD
Duration : 12mn 45s
Bit rate : 1 266 Kbps
Width : 592 pixels
Height : 464 pixels
Display aspect ratio : 1.276
Frame rate : 25.000 fps
Color space : YUV
Chroma subsampling : 4:2:0
Bit depth : 8 bits
Scan type : Progressive
Compression mode : Lossy
Bits/(Pixel*Frame) : 0.184
Stream size : 116 MiB (90%)
Writing library : XviD 73
Audio
ID : 1
Format : MPEG Audio
Format version : Version 1
Format profile : Layer 3
Codec ID : 55
Codec ID/Hint : MP3
Duration : 12mn 45s
Bit rate mode : Constant
Bit rate : 128 Kbps
Channel(s) : 2 channels
Sampling rate : 44.1 KHz
Compression mode : Lossy
Delay relative to video : 2ms
Stream size : 11.7 MiB (9%)
Alignment : Split accross interleaves
Interleave, duration : 40 ms (1.00 video frame)
Interleave, preload duration : 500 ms

Скриншоты

[cybertorrent.net].t192.torrent 
Торрент: Зарегистрирован [ 2019-03-18 10:04 ] · D40EF1339B6ECF2A98DFD4A3043E159ED2163A09

Скачать .torrent

Скачать

11 KB

Статус: проверено
Скачан: 0 раз
Размер: 128 MB
terms.php
Показать сообщения:    

Текущее время: 22-Ноя 12:54

Часовой пояс: UTC ± 0



Вы не можете начинать темы
Вы не можете отвечать на сообщения
Вы не можете редактировать свои сообщения
Вы не можете удалять свои сообщения
Вы не можете голосовать в опросах
Вы не можете прикреплять файлы к сообщениям
Вы можете скачивать файлы