Статистика раздачи
Размер:  1,26 GB   |    Зарегистрирован:  7 месяцев 3 дня   |    Скачан:  0 раз

Полного источника не было: Никогда

 
     
 
 

Гость ®

Пол:
Не указан

Падение Ордена / Knightfall
Год выпуска: 2019
Страна: США / A+E Studios, Midnight Radio, Stillking Films
Жанр: боевик, драма, приключения
Продолжительность: ~00:45:00
Перевод: Профессиональный (многоголосый закадровый) LostFilm
Режиссёр: Дуглас Маккиннон, Дэвид Петрарка, Метин Хусейн
В ролях: Том Каллен, Падрейк Делани, Саймон Мерреллс, Оливия Росс, Джулиан Овенден, Эд Стоппард, Сабрина Бартлетт, Бобби Шофилд, Сара-Софи Бусснина, Нассер Мемарзиа
Описание: Действие сериала разворачивается вокруг самой драгоценной и загадочной реликвии христианства — Святого Грааля, бесследно утерянного в результате падения города Акры, последнего оплота тамплиеров. Существование Ордена теперь под угрозой и зависит от того, будет ли найден Кубок Христа. На поиски Грааля отправляется предводитель тамплиеров — храбрый воин сэр Лэндри, чтобы помешать уничтожению Ордена.

Сэмпл: http://sendfile.su/1486448
Качество: WEB-DLRip
Формат: AVI
Видео: 704x352 (2.00:1), 23.976 fps, XviD build 73 ~1599 kbps avg, 0.27 bit/pixel
Аудио #1: 48 kHz, AC3 Dolby Digital, 2/0 (L,R) ch, ~192.00 kbps avg | RUS | LostFilm
Аудио #2: 48 kHz, AC3 Dolby Digital, 2/0 (L,R) ch, ~192.00 kbps avg | ENG
Субтитры: Отсутствуют
Реклама: Отсутствует

Список серий

01. Палачи Господни / God's Executioners
02. Дьявол внутри / The Devil Inside

MediaInfo

General
Complete name : D:\Мои рипы\Knightfall.S02.LostFilm.WEB-DLRip.OlLanDGroup\Knightfall.s02e01.LostFilm.WEB-DLRip.OlLanDGroup.avi
Format : AVI
Format/Info : Audio Video Interleave
File size : 648 MiB
Duration : 45 min 20 s
Overall bit rate : 1 998 kb/s
Writing application : VirtualDubMod 1.5.10.2 (build 2540/release)
Writing library : VirtualDubMod build 2540/release
Video
ID : 0
Format : MPEG-4 Visual
Format profile : Advanced Simple@L5
Format settings : BVOP1 / Custom Matrix
Format settings, BVOP : 1
Format settings, QPel : No
Format settings, GMC : No warppoints
Format settings, Matrix : Custom
Codec ID : XVID
Codec ID/Hint : XviD
Duration : 45 min 20 s
Bit rate : 1 600 kb/s
Width : 704 pixels
Height : 352 pixels
Display aspect ratio : 2.000
Frame rate : 23.976 (24000/1001) FPS
Color space : YUV
Chroma subsampling : 4:2:0
Bit depth : 8 bits
Scan type : Progressive
Compression mode : Lossy
Bits/(Pixel*Frame) : 0.269
Stream size : 519 MiB (80%)
Writing library : XviD 73
Audio #1
ID : 1
Format : AC-3
Format/Info : Audio Coding 3
Commercial name : Dolby Digital
Codec ID : 2000
Duration : 45 min 20 s
Bit rate mode : Constant
Bit rate : 192 kb/s
Channel(s) : 2 channels
Channel layout : L R
Sampling rate : 48.0 kHz
Frame rate : 31.250 FPS (1536 SPF)
Bit depth : 16 bits
Compression mode : Lossy
Stream size : 62.3 MiB (10%)
Alignment : Split accross interleaves
Interleave, duration : 42 ms (1.00 video frame)
Interleave, preload duration : 500 ms
Service kind : Complete Main
Audio #2
ID : 2
Format : AC-3
Format/Info : Audio Coding 3
Commercial name : Dolby Digital
Codec ID : 2000
Duration : 45 min 20 s
Bit rate mode : Constant
Bit rate : 192 kb/s
Channel(s) : 2 channels
Channel layout : L R
Sampling rate : 48.0 kHz
Frame rate : 31.250 FPS (1536 SPF)
Bit depth : 16 bits
Compression mode : Lossy
Stream size : 62.3 MiB (10%)
Alignment : Split accross interleaves
Interleave, duration : 42 ms (1.00 video frame)
Interleave, preload duration : 500 ms
Service kind : Complete Main

Скриншоты

Предыдущие и альтернативные раздачи
[cybertorrent.net].t1907.torrent 
Торрент: Зарегистрирован [ 2019-04-10 16:11 ] · E43CD5609F3AF946363FEEB3144B987D137D1084

Скачать .torrent

Скачать

13 KB

Статус: проверено
Скачан: 0 раз
Размер: 1,26 GB
terms.php
Показать сообщения:    

Текущее время: 13-Ноя 17:04

Часовой пояс: UTC ± 0



Вы не можете начинать темы
Вы не можете отвечать на сообщения
Вы не можете редактировать свои сообщения
Вы не можете удалять свои сообщения
Вы не можете голосовать в опросах
Вы не можете прикреплять файлы к сообщениям
Вы можете скачивать файлы