Статистика раздачи
Размер:  1,21 GB   |    Зарегистрирован:  7 месяцев 1 день   |    Скачан:  0 раз

Полного источника не было: Никогда

 
     
 
 

Гость ®

Пол:
Не указан

Плащ и Кинжал / Cloak & Dagger
Год выпуска: 2019
Страна: США / ABC Signature Studios, ABC Studios, ABC Television Network
Жанр: фантастика, боевик, драма
Продолжительность: ~00:45:00 - серия
Перевод: Профессиональный (дублированный) Невафильм
Режиссёр: Алекс Гарсиа Лопес, Питер Хор, Эми Канаан Манн
В ролях: Оливия Холт, Обри Джозеф, Глория Рубен, Дж.Д. Эвермор, Майлз Массенден, Андреа Рот, Эмма Лахана, Ноэль Рени Берси, Уэйн Пер, Карл Лундстедт
Описание: Молодежный фантастический сериал, созданный по мотивам одноименной серии комиксов Marvel. В качестве одного из продюсеров проекта выступил легендарный Стэн Ли – создатель Человека-паука, Людей Икс, Доктора Стрэнджа, Железного человека, Сорвиголовы, Тора и многих других супергероев. Тэнди Боуэн (Оливия Холт) – красивая девушка, которая промышляет воровством: она мечтает скопить побольше денег, чтобы навсегда сбежать из-под опеки своей эгоистичной матери. Тайрон Джонсон (Обри Джозеф) – замкнутый подросток-афроамериканец, выросший в бедном районе. Случайная встреча на школьной вечеринке изменит жизнь обоих: вскоре Тэнди и Тайрон обнаружат у себя сверхспособности, которыми они пока не в силах управлять. Тэнди способна генерировать световые кинжалы, а Тайрон может перемещаться в пространстве с помощью некой темной энергии. Разгадка удивительных способностей подростков кроется в их общем прошлом – роковой штормовой ночи, когда Тэнди потеряла отца, а Тайрон – брата. Постепенно Тэнди и Тайрон понимают, что им лучше держаться вместе, ведь только так они смогут научиться управлять своими силами.

Сэмпл: http://sendfile.su/1487774
Качество: WEB-DLRip
Формат: AVI
Видео: 704x400 (1.76:1), 23.976 fps, XviD build 73 ~1650 kbps avg, 0.24 bit/pixel
Аудио #1: 48 kHz, AC3 Dolby Digital, 2/0 (L,R) ch, ~192.00 kbps avg
Аудио #2: 48 kHz, AC3 Dolby Digital, 2/0 (L,R) ch, ~192.00 kbps avg
Субтитры: Отсутствуют
Реклама: Отсутствует

Список серий

01. Restless Energy
02. White Lines

MediaInfo

General
Complete name : D:\Мои рипы\Marvels.Cloak.and.Dagger.S02.WEB-DLRip.DUB.RGzsRutracker.[LoRd]\Marvels.Cloak.and.Dagger.S02E01.WEB-DLRip.DUB.RGzsRutracker.[LoRd].avi
Format : AVI
Format/Info : Audio Video Interleave
File size : 621 MiB
Duration : 42 min 27 s
Overall bit rate : 2 046 kb/s
Writing application : VirtualDubMod 1.5.10.2 (build 2540/release)
Writing library : VirtualDubMod build 2540/release
Video
ID : 0
Format : MPEG-4 Visual
Format profile : Advanced Simple@L5
Format settings : BVOP1 / Custom Matrix
Format settings, BVOP : 1
Format settings, QPel : No
Format settings, GMC : No warppoints
Format settings, Matrix : Custom
Codec ID : XVID
Codec ID/Hint : XviD
Duration : 42 min 27 s
Bit rate : 1 648 kb/s
Width : 704 pixels
Height : 400 pixels
Display aspect ratio : 16:9
Frame rate : 23.976 (24000/1001) FPS
Color space : YUV
Chroma subsampling : 4:2:0
Bit depth : 8 bits
Scan type : Progressive
Compression mode : Lossy
Bits/(Pixel*Frame) : 0.244
Stream size : 500 MiB (81%)
Writing library : XviD 73
Audio #1
ID : 1
Format : AC-3
Format/Info : Audio Coding 3
Commercial name : Dolby Digital
Codec ID : 2000
Duration : 42 min 27 s
Bit rate mode : Constant
Bit rate : 192 kb/s
Channel(s) : 2 channels
Channel layout : L R
Sampling rate : 48.0 kHz
Frame rate : 31.250 FPS (1536 SPF)
Bit depth : 16 bits
Compression mode : Lossy
Stream size : 58.3 MiB (9%)
Alignment : Split accross interleaves
Interleave, duration : 42 ms (1.00 video frame)
Interleave, preload duration : 500 ms
Service kind : Complete Main
Audio #2
ID : 2
Format : AC-3
Format/Info : Audio Coding 3
Commercial name : Dolby Digital
Codec ID : 2000
Duration : 42 min 27 s
Bit rate mode : Constant
Bit rate : 192 kb/s
Channel(s) : 2 channels
Channel layout : L R
Sampling rate : 48.0 kHz
Frame rate : 31.250 FPS (1536 SPF)
Bit depth : 16 bits
Compression mode : Lossy
Stream size : 58.3 MiB (9%)
Alignment : Split accross interleaves
Interleave, duration : 42 ms (1.00 video frame)
Interleave, preload duration : 500 ms
Service kind : Complete Main

Скриншоты

Исходник

За исходники спасибо Zgurvas@Eniahd
Предыдущие и альтернативные раздачи
[cybertorrent.net].t1905.torrent 
Торрент: Зарегистрирован [ 2019-04-10 16:11 ] · 9B6879711597981454C1EF7C54E4E44586F832ED

Скачать .torrent

Скачать

13 KB

Статус: проверено
Скачан: 0 раз
Размер: 1,21 GB
terms.php
Показать сообщения:    

Текущее время: 12-Ноя 06:24

Часовой пояс: UTC ± 0



Вы не можете начинать темы
Вы не можете отвечать на сообщения
Вы не можете редактировать свои сообщения
Вы не можете удалять свои сообщения
Вы не можете голосовать в опросах
Вы не можете прикреплять файлы к сообщениям
Вы можете скачивать файлы