Статистика раздачи
Размер:  8,63 GB   |    Зарегистрирован:  11 дней   |    Скачан:  0 раз
DL-List: Нет

Полного источника не было: Никогда

 
     
 
 

MAGNAT ®

Пол:
Мужской
Стаж:
1 год 2 месяца
Сообщений:
7949

Бледная кровь / Pale Blood
Страна: США
Жанр: ужасы
Год выпуска: 1990
Продолжительность: 01:33:36
Перевод: Профессиональный (двухголосый закадровый) НТВ+
Субтитры: английские
Оригинальная аудиодорожка: английский
Режиссер: В.В. Дачин Хсу / V.V. Dachin Hsu, Майкл В. Лейтон / Michael W. Leighton
В ролях: Джордж Чакирис, Уингз Хаузер, Памела Людвиг, Диана Фрэнк, Дарси ДеМосс, Эрл Гарнс, Фрейзер Смит, Михаэль Пальм
Описание: Притворяющийся вампиром убийца женщин Вандамир сталкивается с настоящим кровососом Майклом, которого послали убить Вандамира, чтобы он своими сомнительными действиями не дискредитировал вампирское сообщество.
Тип релиза: BDRip 1080p
Контейнер: MKV
Видео: AVC, 1920x1036, 1,85:1, 23.976 fps, 11580 kbps
Аудио 1: AC3 Dolby Digital, 48 kHz, 192Kbps, 2/0 ch, Russian DVO
Аудио 2: DTS Dolby Digital, 48 kHz, 1509Kbps, 2/0 ch, English

MediaInfo

Общее
Уникальный идентификатор : 34321106471549097940425498956165826054 (0x19D20131E8C9AA462E73950171604606)
Полное имя : C:\Downloads\Pale.Blood.1990.BDRip.1080p.mkv
Формат : Matroska
Версия формата : Version 4
Размер файла : 8,63 Гбайт
Продолжительность : 1 ч. 33 м.
Общий поток : 13,2 Мбит/сек
Дата кодирования : UTC 2020-05-14 05:38:53
Программа кодирования : mkvmerge v36.0.0 ('Is That Jazz?') 64-bit
Библиотека кодирования : libebml v1.3.9 + libmatroska v1.5.2
Видео
Идентификатор : 1
Формат : AVC
Формат/Информация : Advanced Video Codec
Профиль формата : High@L4.1
Настройки формата : CABAC / 4 Ref Frames
Параметр CABAC формата : Да
Параметр RefFrames формата : 4 кадра
Идентификатор кодека : V_MPEG4/ISO/AVC
Продолжительность : 1 ч. 33 м.
Битрейт : 11,5 Мбит/сек
Ширина : 1920 пикселей
Высота : 1036 пикселей
Соотношение сторон : 1,85:1
Режим частоты кадров : Постоянный
Частота кадров : 23,976 (24000/1001) кадра/сек
Цветовое пространство : YUV
Субдискретизация насыщенности : 4:2:0
Битовая глубина : 8 бит
Тип развёртки : Прогрессивная
Бит/(Пиксели*Кадры) : 0.241
Размер потока : 7,52 Гбайт (87%)
Библиотека кодирования : x264 core 148 r2748 97eaef2
Настройки программы : cabac=1 / ref=4 / deblock=1:-2:-2 / analyse=0x3:0x113 / me=umh / subme=9 / psy=1 / psy_rd=1.00:0.15 / mixed_ref=1 / me_range=16 / chroma_me=1 / trellis=2 / 8x8dct=1 / cqm=0 / deadzone=21,11 / fast_pskip=1 / chroma_qp_offset=-3 / threads=24 / lookahead_threads=3 / sliced_threads=0 / nr=0 / decimate=1 / interlaced=0 / bluray_compat=0 / constrained_intra=0 / bframes=3 / b_pyramid=2 / b_adapt=1 / b_bias=0 / direct=3 / weightb=1 / open_gop=0 / weightp=2 / keyint=250 / keyint_min=25 / scenecut=40 / intra_refresh=0 / rc_lookahead=50 / rc=2pass / mbtree=1 / bitrate=11500 / ratetol=1.0 / qcomp=0.60 / qpmin=0 / qpmax=69 / qpstep=4 / cplxblur=20.0 / qblur=0.5 / vbv_maxrate=31250 / vbv_bufsize=31250 / nal_hrd=none / filler=0 / ip_ratio=1.40 / aq=1:1.00
Язык : English
Default : Да
Forced : Нет
Аудио #1
Идентификатор : 2
Формат : AC-3
Формат/Информация : Audio Coding 3
Коммерческое название : Dolby Digital
Идентификатор кодека : A_AC3
Продолжительность : 1 ч. 33 м.
Вид битрейта : Постоянный
Битрейт : 192 Кбит/сек
Каналы : 2 канала
ChannelLayout : L R
Частота : 48,0 КГц
Частота кадров : 31,250 кадров/сек (1536 SPF)
Метод сжатия : С потерями
Размер потока : 128 Мбайт (1%)
Язык : Russian
ServiceKind/String : Complete Main
Default : Да
Forced : Нет
Аудио #2
Идентификатор : 3
Формат : DTS
Формат/Информация : Digital Theater Systems
Идентификатор кодека : A_DTS
Продолжительность : 1 ч. 33 м.
Вид битрейта : Постоянный
Битрейт : 1509 Кбит/сек
Каналы : 2 канала
ChannelLayout : L R
Частота : 48,0 КГц
Частота кадров : 93,750 кадра/сек (512 SPF)
Битовая глубина : 24 бит
Метод сжатия : С потерями
Размер потока : 1010 Мбайт (11%)
Язык : English
Default : Нет
Forced : Нет
Текст
Идентификатор : 4
Формат : UTF-8
Идентификатор кодека : S_TEXT/UTF8
Идентификатор кодека/Информация : UTF-8 Plain Text
Продолжительность : 1 ч. 32 м.
Битрейт : 42 бит/сек
ElementCount : 1013
Размер потока : 28,9 Кбайт (0%)
Язык : English
Default : Нет
Forced : Нет
Меню
00:00:00.000 : en:Chapter 01
00:16:29.989 : en:Chapter 02
00:36:38.196 : en:Chapter 03
00:57:39.456 : en:Chapter 04
01:17:11.126 : en:Chapter 05

Скриншоты

[cybertorrent.net].t18996.torrent 
Торрент: Зарегистрирован [ 2020-05-22 18:20 ] · 20A977201B91FA235AB36C0F8A881FA64B554F50

Скачать .torrent

Скачать

22 KB

Статус: проверено
Скачан: 0 раз
Размер: 8,63 GB  ·  Тип торрента
terms.php
Профиль [ЛС]
Показать сообщения:    

Текущее время: 02-Июн 23:31

Часовой пояс: UTC ± 0



Вы не можете начинать темы
Вы не можете отвечать на сообщения
Вы не можете редактировать свои сообщения
Вы не можете удалять свои сообщения
Вы не можете голосовать в опросах
Вы не можете прикреплять файлы к сообщениям
Вы можете скачивать файлы