Статистика раздачи
Нет
 
     
 
 

MAGNAT ®

Пол:
Мужской
Стаж:
1 год 2 месяца
Сообщений:
7949

Человек-невидимка / The Invisible Man
«Невидимое таит опасность»
Страна: Австралия, США, Канада, Великобритания
Студия: Goalpost Pictures, Blumhouse Productions, Dark Universe
Жанр: ужасы, фантастика, триллер, детектив
Год выпуска: 2020
Продолжительность: 02:04:23
Перевод 1: Профессиональный (дублированный) (iTunes)
Перевод 2: Любительский (многоголосый закадровый) (HDRezka Studio)
Перевод 3: Любительский (многоголосый закадровый) (Mallorn Studio)
Перевод 4: Любительский (одноголосый закадровый) (Владимир Назаров)
Перевод 5: Любительский (одноголосый закадровый) (Вячеслав Замез)
Субтитры: русские (Forced, Full), английские (Full, SDH)
Оригинальная аудиодорожка: английский
Режиссер: Ли Уоннелл / Leigh Whannell
В ролях: Элизабет Мосс, Оливер Джексон-Коэн, Харриет Дайер, Элдис Ходж, Сторм Рейд, Майкл Дорман, Бенедикт Харди, Рени Лим, Брайан Миган, Ник Кичи
Описание: На первый взгляд жизнь Сесилии кажется безупречной: огромный дом, бойфренд - гениальный ученый-миллионер. Но никто не знает, что на самом деле происходит за высокими стенами роскошного особняка... И даже идеально спланированный побег оказывается ловушкой. Невозможно спрятаться от преследователя, которого не видишь.
Контейнер: MKV
Видео: MPEG-4/AVC, 1920x804, 13.8 Mbit/s, 23.976 fps
Аудио 1: 48 kHz, AC3, 5.1, 384 Kbps | RUS | DUB | iTunes
Аудио 2: 48 kHz, AC3, 5.1, 448 Kbps | RUS | MVO | HDRezka Studio
Аудио 3: 48 kHz, AC3, 5.1, 384 Kbps | RUS | MVO | Mallorn Studio
Аудио 4: 48 kHz, AC3, 5.1, 640 Kbps | RUS | VO | Владимир Назаров
Аудио 4: 48 kHz, AC3, 5.1, 640 Kbps | RUS | VO | Вячеслав Замез
Аудио 4: 48 kHz, AC3, 2.0, 192 Kbps | UKR | DUB | Line
Аудио 4: 48 kHz, AC3, 5.1, 448 Kbps | ENG | Оригинал
Формат субтитров: softsub (SRT)

MediaInfo

x264 [info]: frame I:1899 Avg QP:12.26 size:290034
x264 [info]: frame P:53234 Avg QP:14.41 size:128478
x264 [info]: frame B:131011 Avg QP:15.37 size:49151
x264 [info]: consecutive B-frames:5.6% 10.3% 9.7% 38.1% 11.5% 15.8% 3.8% 4.7% 0.5%-General
Unique ID : 223027382609579906790973896810025807738 (0xA7C982EEF392C7799E32818A1D516F7A)
Complete name : The.Invisible.Man.2020.BDRip.1080p.mreskenses.mkv
Format : Matroska
Format version : Version 4
File size : 14.8 GiB
Duration : 2 h 4 min
Overall bit rate : 17.0 Mb/s
Movie name : The.Invisible.Man.2020.BDRip.1080p.mreskenses
Encoded date : UTC 2020-05-15 17:09:05
Writing application : mkvmerge v45.0.0 ('Heaven in Pennies') 64-bit
Writing library : libebml v1.3.10 + libmatroska v1.5.2
Video
ID : 1
Format : AVC
Format/Info : Advanced Video Codec
Format profile : High@L4.1
Format settings : CABAC / 4 Ref Frames
Format settings, CABAC : Yes
Format settings, Reference fra : 4 frames
Codec ID : V_MPEG4/ISO/AVC
Duration : 2 h 4 min
Bit rate : 13.8 Mb/s
Width : 1 920 pixels
Height : 804 pixels
Display aspect ratio : 2.40:1
Frame rate mode : Constant
Frame rate : 23.976 (24000/1001) FPS
Color space : YUV
Chroma subsampling : 4:2:0
Bit depth : 8 bits
Scan type : Progressive
Bits/(Pixel*Frame) : 0.374
Stream size : 12.0 GiB (82%)
Title : The.Invisible.Man.2020.BDRip.1080p.mreskenses
Writing library : x264 core 159 r2867+150 7e91e0e t_mod_Custom_2 [8-bit@all X86_64]
Encoding settings : cabac=1 / ref=4 / deblock=1:-3:-3 / analyse=0x3:0x133 / me=umh / subme=11 / psy=1 / fade_compensate=0.00 / psy_rd=0.90:0.10 / mixed_ref=1 / me_range=64 / chroma_me=1 / trellis=2 / 8x8dct=1 / cqm=0 / deadzone=21,11 / fast_pskip=0 / chroma_qp_offset=-4 / threads=25 / lookahead_threads=4 / sliced_threads=0 / nr=0 / decimate=1 / interlaced=0 / bluray_compat=0 / constrained_intra=0 / fgo=0 / bframes=8 / b_pyramid=2 / b_adapt=2 / b_bias=0 / direct=3 / weightb=1 / open_gop=0 / weightp=2 / keyint=250 / keyint_min=23 / scenecut=40 / intra_refresh=0 / rc_lookahead=60 / rc=crf / mbtree=0 / crf=18.0000 / qcomp=0.70 / qpmin=0:0:0 / qpmax=69:69:69 / qpstep=4 / vbv_maxrate=35000 / vbv_bufsize=35000 / crf_max=0.0 / nal_hrd=none / filler=0 / ip_ratio=1.40 / pb_ratio=1.30 / aq=3:1.00 / aq-sensitivity=10.00 / aq-factor=1.00:1.00:1.00 / aq2=0 / aq3=0
Language : English
Default : Yes
Forced : No
Audio #1
ID : 2
Format : AC-3
Format/Info : Audio Coding 3
Commercial name : Dolby Digital
Codec ID : A_AC3
Duration : 2 h 4 min
Bit rate mode : Constant
Bit rate : 384 kb/s
Channel(s) : 6 channels
Channel layout : L R C LFE Ls Rs
Sampling rate : 48.0 kHz
Frame rate : 31.250 FPS (1536 SPF)
Compression mode : Lossy
Stream size : 342 MiB (2%)
Title : DUB - iTunes
Language : Russian
Service kind : Complete Main
Default : Yes
Forced : No
Audio #2
ID : 3
Format : AC-3
Format/Info : Audio Coding 3
Commercial name : Dolby Digital
Codec ID : A_AC3
Duration : 2 h 4 min
Bit rate mode : Constant
Bit rate : 448 kb/s
Channel(s) : 6 channels
Channel layout : L R C LFE Ls Rs
Sampling rate : 48.0 kHz
Frame rate : 31.250 FPS (1536 SPF)
Compression mode : Lossy
Stream size : 399 MiB (3%)
Title : MVO - HDRezka Studio
Language : Russian
Service kind : Complete Main
Default : No
Forced : No
Audio #3
ID : 4
Format : AC-3
Format/Info : Audio Coding 3
Commercial name : Dolby Digital
Codec ID : A_AC3
Duration : 2 h 4 min
Bit rate mode : Constant
Bit rate : 384 kb/s
Channel(s) : 6 channels
Channel layout : L R C LFE Ls Rs
Sampling rate : 48.0 kHz
Frame rate : 31.250 FPS (1536 SPF)
Compression mode : Lossy
Stream size : 342 MiB (2%)
Title : MVO - Mallorn Studio
Language : Russian
Service kind : Complete Main
Default : No
Forced : No
Audio #4
ID : 5
Format : AC-3
Format/Info : Audio Coding 3
Commercial name : Dolby Digital
Codec ID : A_AC3
Duration : 2 h 4 min
Bit rate mode : Constant
Bit rate : 640 kb/s
Channel(s) : 6 channels
Channel layout : L R C LFE Ls Rs
Sampling rate : 48.0 kHz
Frame rate : 31.250 FPS (1536 SPF)
Compression mode : Lossy
Stream size : 569 MiB (4%)
Title : VO - Владимир Назаров
Language : Russian
Service kind : Complete Main
Default : No
Forced : No
Audio #5
ID : 6
Format : AC-3
Format/Info : Audio Coding 3
Commercial name : Dolby Digital
Codec ID : A_AC3
Duration : 2 h 4 min
Bit rate mode : Constant
Bit rate : 640 kb/s
Channel(s) : 6 channels
Channel layout : L R C LFE Ls Rs
Sampling rate : 48.0 kHz
Frame rate : 31.250 FPS (1536 SPF)
Compression mode : Lossy
Stream size : 569 MiB (4%)
Title : VO - Вячеслав Замез
Language : Russian
Service kind : Complete Main
Default : No
Forced : No
Audio #6
ID : 7
Format : AC-3
Format/Info : Audio Coding 3
Commercial name : Dolby Digital
Codec ID : A_AC3
Duration : 2 h 4 min
Bit rate mode : Constant
Bit rate : 192 kb/s
Channel(s) : 2 channels
Channel layout : L R
Sampling rate : 48.0 kHz
Frame rate : 31.250 FPS (1536 SPF)
Compression mode : Lossy
Stream size : 171 MiB (1%)
Title : DUB - Line
Language : Ukrainian
Service kind : Complete Main
Default : No
Forced : No
Audio #7
ID : 8
Format : AC-3
Format/Info : Audio Coding 3
Commercial name : Dolby Digital
Codec ID : A_AC3
Duration : 2 h 4 min
Bit rate mode : Constant
Bit rate : 448 kb/s
Channel(s) : 6 channels
Channel layout : L R C LFE Ls Rs
Sampling rate : 48.0 kHz
Frame rate : 31.250 FPS (1536 SPF)
Compression mode : Lossy
Stream size : 399 MiB (3%)
Title : Original
Language : English
Service kind : Complete Main
Default : No
Forced : No
Text #1
ID : 9
Format : UTF-8
Codec ID : S_TEXT/UTF8
Codec ID/Info : UTF-8 Plain Text
Duration : 1 h 45 min
Bit rate : 0 b/s
Count of elements : 12
Stream size : 587 Bytes (0%)
Title : Forced
Language : Russian
Default : Yes
Forced : No
Text #2
ID : 10
Format : UTF-8
Codec ID : S_TEXT/UTF8
Codec ID/Info : UTF-8 Plain Text
Duration : 1 h 53 min
Bit rate : 48 b/s
Count of elements : 958
Stream size : 40.6 KiB (0%)
Title : Full [Mallorn]
Language : Russian
Default : No
Forced : No
Text #3
ID : 11
Format : UTF-8
Codec ID : S_TEXT/UTF8
Codec ID/Info : UTF-8 Plain Text
Duration : 1 h 49 min
Bit rate : 33 b/s
Count of elements : 965
Stream size : 26.8 KiB (0%)
Title : Full
Language : English
Default : No
Forced : No
Text #4
ID : 12
Format : UTF-8
Codec ID : S_TEXT/UTF8
Codec ID/Info : UTF-8 Plain Text
Duration : 2 h 4 min
Bit rate : 43 b/s
Count of elements : 1416
Stream size : 39.3 KiB (0%)
Title : SDH
Language : English
Default : No
Forced : No
Menu
00:00:00.000 : en:
00:11:05.748 : en:
00:16:09.135 : en:
00:19:16.322 : en:
00:25:27.651 : en:
00:35:52.233 : en:
00:39:50.179 : en:
00:46:35.459 : en:
00:52:41.867 : en:
01:01:22.012 : en:
01:08:59.802 : en:
01:14:49.735 : en:
01:19:23.926 : en:
01:24:46.540 : en:
01:30:25.337 : en:
01:35:24.928 : en:
01:39:33.342 : en:
01:43:04.220 : en:
01:48:54.695 : en:
01:53:38.812 : en:

Скриншоты

Профиль [ЛС]
Показать сообщения:    

Текущее время: 02-Июн 23:37

Часовой пояс: UTC ± 0



Вы не можете начинать темы
Вы не можете отвечать на сообщения
Вы не можете редактировать свои сообщения
Вы не можете удалять свои сообщения
Вы не можете голосовать в опросах
Вы не можете прикреплять файлы к сообщениям
Вы не можете скачивать файлы