Статистика раздачи
Размер:  16,53 GB   |    Зарегистрирован:  11 дней   |    Скачан:  0 раз
DL-List: Нет

Полного источника не было: Никогда

 
     
 
 

MAGNAT ®

Пол:
Мужской
Стаж:
1 год 2 месяца
Сообщений:
7949

Доктор Сон / Doctor Sleep
«Мир снова охватит сияние»
Страна: Великобритания, Канада, США
Студия: Warner Bros., Intrepid Pictures, Vertigo Entertainment
Жанр: ужасы, фэнтези, триллер, драма
Год выпуска: 2019
Продолжительность: 03:00:14
Перевод 1: Профессиональный (дублированный) | Лицензия BD CEE | Мосфильм-Мастер
Перевод 2: Любительский (одноголосый закадровый) | Вячеслав Замез
Субтитры: русские (Forced, Full), английские (Full)
Оригинальная аудиодорожка: английский
Режиссер: Майк Флэнеган / Mike Flanagan
В ролях: Юэн Макгрегор, Ребекка Фергюсон, Кайли Кёрран, Брюс Гринвуд, Зан Маккларнон, Клифф Кёртис, Карл Ламбли, Джейкоб Тремблей, Закари Момо, Эмили Элин Линд и др.
Описание: Прошло много лет с тех пор, как мальчик с паранормальными способностями Дэнни Торранс пережил кошмарный сезон в отеле «Оверлук», где стал свидетелем безумия и гибели своего отца. Повзрослев, Дэн вёл жизнь маргинала-алкоголика, а теперь пытается завязать и даже устроился на работу в дом престарелых. Там он безошибочно определяет, кому из постояльцев подошла очередь покинуть этот мир, за что и получил прозвище Доктор Сон. Однажды с Дэном устанавливает связь невероятно одарённая «сияющая» девочка Абра. Вскоре ей потребуется его помощь, чтобы противостоять членам организации «Истинный узел» — группы охотников за особенными детьми.
Тип релиза: BDRip 1080p
Контейнер: MKV
Видео: MPEG-4/AVC, 1920x1038, 11.6 Mb/s, 23,976 fps
Аудио 1: 48 kHz, AC3, 5.1, 448 kbps | RUS | DUB | Лицензия BD CEE | (имеются вставки VO на непереведенные фрагменты)
Аудио 2: 48 kHz, AC3, 5.1, 640 kbps | RUS | VO | Вячеслав Замез
Аудио 3: 48 kHz, AC3, 5.1, 448 kbps | ENG | Оригинал
Формат субтитров: softsub (SRT)

MediaInfo

x264 [info]: frame I:824 Avg QP:12.95 size:169631
x264 [info]: frame P:30666 Avg QP:15.04 size: 83845
x264 [info]: frame B:119576 Avg QP:15.85 size: 36522-General
Unique ID : 234204698919292510161424331910033611353 (0xB0322F2CBE69CC188D6159C8810E9A59)
Complete name : G:\Фильмы HD\Doctor.Sleep.BDRip.1080p.mkv
Format : Matroska
Format version : Version 4
File size : 16.5 GiB
Duration : 3 h 0 min
Overall bit rate : 13.1 Mb/s
Encoded date : UTC 2020-04-12 14:27:17
Writing application : mkvmerge v9.5.0 ('Quiet Fire') 64bit
Writing library : libebml v1.3.4 + libmatroska v1.4.5
Video
ID : 1
Format : AVC
Format/Info : Advanced Video Codec
Format profile : High@L4.1
Format settings : CABAC / 4 Ref Frames
Format settings, CABAC : Yes
Format settings, Reference fra : 4 frames
Codec ID : V_MPEG4/ISO/AVC
Duration : 3 h 0 min
Bit rate : 11.6 Mb/s
Width : 1 920 pixels
Height : 1 038 pixels
Display aspect ratio : 1.85:1
Frame rate mode : Constant
Frame rate : 23.976 (23976/1000) FPS
Color space : YUV
Chroma subsampling : 4:2:0
Bit depth : 8 bits
Scan type : Progressive
Bits/(Pixel*Frame) : 0.243
Stream size : 14.6 GiB (88%)
Writing library : x264 core 159 r2991 1771b55
Encoding settings : cabac=1 / ref=4 / deblock=1:-1:-1 / analyse=0x3:0x133 / me=tesa / subme=11 / psy=1 / psy_rd=1.00:0.00 / mixed_ref=1 / me_range=32 / chroma_me=1 / trellis=2 / 8x8dct=1 / cqm=0 / deadzone=21,11 / fast_pskip=0 / chroma_qp_offset=-2 / threads=24 / lookahead_threads=6 / sliced_threads=0 / nr=0 / decimate=0 / interlaced=0 / bluray_compat=0 / constrained_intra=0 / bframes=10 / b_pyramid=2 / b_adapt=2 / b_bias=0 / direct=3 / weightb=1 / open_gop=0 / weightp=2 / keyint=240 / keyint_min=23 / scenecut=40 / intra_refresh=0 / rc_lookahead=60 / rc=2pass / mbtree=0 / bitrate=11593 / ratetol=1.0 / qcomp=0.70 / qpmin=0 / qpmax=69 / qpstep=4 / cplxblur=20.0 / qblur=0.5 / vbv_maxrate=50000 / vbv_bufsize=62500 / nal_hrd=none / filler=0 / ip_ratio=1.40 / pb_ratio=1.30 / aq=3:0.90
Language : English
Default : Yes
Forced : No
Audio #1
ID : 2
Format : AC-3
Format/Info : Audio Coding 3
Commercial name : Dolby Digital
Codec ID : A_AC3
Duration : 3 h 0 min
Bit rate mode : Constant
Bit rate : 448 kb/s
Channel(s) : 6 channels
Channel layout : L R C LFE Ls Rs
Sampling rate : 48.0 kHz
Frame rate : 31.250 FPS (1536 SPF)
Compression mode : Lossy
Stream size : 578 MiB (3%)
Title : DUB - Лицензия
Language : Russian
Service kind : Complete Main
Default : Yes
Forced : No
Audio #2
ID : 3
Format : AC-3
Format/Info : Audio Coding 3
Commercial name : Dolby Digital
Codec ID : A_AC3
Duration : 3 h 0 min
Bit rate mode : Constant
Bit rate : 640 kb/s
Channel(s) : 6 channels
Channel layout : L R C LFE Ls Rs
Sampling rate : 48.0 kHz
Frame rate : 31.250 FPS (1536 SPF)
Compression mode : Lossy
Stream size : 825 MiB (5%)
Title : VO - Вячеслав Замез
Language : Russian
Service kind : Complete Main
Default : No
Forced : No
Audio #3
ID : 4
Format : AC-3
Format/Info : Audio Coding 3
Commercial name : Dolby Digital
Codec ID : A_AC3
Duration : 3 h 0 min
Bit rate mode : Constant
Bit rate : 448 kb/s
Channel(s) : 6 channels
Channel layout : L R C LFE Ls Rs
Sampling rate : 48.0 kHz
Frame rate : 31.250 FPS (1536 SPF)
Compression mode : Lossy
Stream size : 578 MiB (3%)
Title : Original
Language : English
Service kind : Complete Main
Default : No
Forced : No
Text #1
ID : 5
Format : UTF-8
Codec ID : S_TEXT/UTF8
Codec ID/Info : UTF-8 Plain Text
Duration : 2 h 24 min
Bit rate : 1 b/s
Count of elements : 55
Stream size : 2.03 KiB (0%)
Title : Forced
Language : Russian
Default : Yes
Forced : No
Text #2
ID : 6
Format : UTF-8
Codec ID : S_TEXT/UTF8
Codec ID/Info : UTF-8 Plain Text
Duration : 2 h 53 min
Bit rate : 63 b/s
Count of elements : 2006
Stream size : 81.2 KiB (0%)
Title : Full
Language : Russian
Default : No
Forced : No
Text #3
ID : 7
Format : UTF-8
Codec ID : S_TEXT/UTF8
Codec ID/Info : UTF-8 Plain Text
Duration : 2 h 53 min
Bit rate : 38 b/s
Count of elements : 1971
Stream size : 49.1 KiB (0%)
Title : Full
Language : English
Default : No
Forced : No
Menu
00:00:00.000 : en:Chapter 01
00:08:29.300 : en:Chapter 02
00:16:39.623 : en:Chapter 03
00:28:01.638 : en:Chapter 04
00:36:45.453 : en:Chapter 05
00:44:42.763 : en:Chapter 06
00:53:24.367 : en:Chapter 07
01:03:41.484 : en:Chapter 08
01:13:39.456 : en:Chapter 09
01:22:05.962 : en:Chapter 10
01:28:56.331 : en:Chapter 11
01:37:13.244 : en:Chapter 12
01:46:31.593 : en:Chapter 13
01:55:11.529 : en:Chapter 14
02:06:19.947 : en:Chapter 15
02:14:58.590 : en:Chapter 16
02:21:33.401 : en:Chapter 17
02:31:58.359 : en:Chapter 18
02:42:26.403 : en:Chapter 19
02:54:07.437 : en:Chapter 20

Скриншоты

[cybertorrent.net].t18987.torrent 
Торрент: Зарегистрирован [ 2020-05-22 18:14 ] · 51F1E72F2F53EBABE3F76556AF61BAF20DCD370B

Скачать .torrent

Скачать

42 KB

Статус: проверено
Скачан: 0 раз
Размер: 16,53 GB  ·  Тип торрента
terms.php
Профиль [ЛС]
Показать сообщения:    

Текущее время: 02-Июн 23:14

Часовой пояс: UTC ± 0



Вы не можете начинать темы
Вы не можете отвечать на сообщения
Вы не можете редактировать свои сообщения
Вы не можете удалять свои сообщения
Вы не можете голосовать в опросах
Вы не можете прикреплять файлы к сообщениям
Вы можете скачивать файлы