Статистика раздачи
Качаю: [ 1 ]
 
     
 
 

MAGNAT ®

Пол:
Мужской
Стаж:
1 год 1 месяц
Сообщений:
7521

Не та девушка / The Wrong Missy
Страна: США
Жанр: мелодрама, комедия
Год выпуска: 2020
Продолжительность: 01:30:00
Перевод: Профессиональный (двухголосый закадровый) IdeaFilm
Субтитры: rus, eng
Оригинальная аудиодорожка: английский
Режиссер: Тайлер Спиндел / Tyler Spindel
В ролях: Дэвид Спейд, Лорен Лапкус, Ник Свардсон, Джеффри Пирсон, Молли Симс, Сара Чок, Ванилла Айс, Джон Фарли, Лори Пелениз Туисано, Крис Витаск
Описание: Когда Тим Моррис случайно знакомится с очаровательной Мисси, то понимает, что встретил девушку своей мечты. Чтобы покорить ее сердце, герой решает пригласить красавицу провести с ним уик-энд на шикарном курорте, где его компания проводит корпоратив. Но Тим ошибается и отправляет сообщение другой Мисси — взбалмошной, эксцентричной особе, которая не стесняется демонстрировать свои недостатки.
Качество видео: WEBRip 1080p
Формат видео: MKV
Видео: AVC, 1920x1080, 16:9, 24 fps, 5 800 kb/s
Аудио 1: AC-3, 48.0 kHz, 384 kb/s, L R C LFE Ls Rs, DVO IdeaFilm
Аудио 2: E-AC-3, 48.0 kHz, 640 kb/s, L R C LFE Ls Rs, Original Eng
Формат субтитров: softsub (SRT)

MediaInfo

General
Unique ID : 76036815186238035953053384082014694027 (0x3934286DBA1DBC54807DB177BE496A8B)
Complete name : D:\The Wrong Missy - Не та девушка 2020 1080p WEB H264.mkv
Format : Matroska
Format version : Version 4
File size : 4.26 GiB
Duration : 1 h 30 min
Overall bit rate mode : Variable
Overall bit rate : 6 773 kb/s
Movie name : The Wrong Missy - Не та девушка 2020 1080p WEB H264
Encoded date : UTC 2020-05-17 06:39:39
Writing application : mkvmerge v27.0.0 ('Metropolis') 64-bit
Writing library : libebml v1.3.6 + libmatroska v1.4.9
Cover : Yes
Attachments : Cover.jpg
Video
ID : 1
Format : AVC
Format/Info : Advanced Video Codec
Format profile : Main@L4
Format settings : CABAC / 3 Ref Frames
Format settings, CABAC : Yes
Format settings, Reference : 3 frames
Codec ID : V_MPEG4/ISO/AVC
Duration : 1 h 30 min
Bit rate mode : Variable
Bit rate : 5 800 kb/s
Maximum bit rate : 8 700 kb/s
Width : 1 920 pixels
Height : 1 080 pixels
Display aspect ratio : 16:9
Frame rate mode : Constant
Frame rate : 24.000 FPS
Color space : YUV
Chroma subsampling : 4:2:0
Bit depth : 8 bits
Scan type : Progressive
Bits/(Pixel*Frame) : 0.117
Stream size : 3.61 GiB (85%)
Writing library : x264 core 148 r2717 0d2410d
Encoding settings : cabac=1 / ref=3 / deblock=1:0:0 / analyse=0x1:0x111 / me=umh / subme=10 / psy=1 / psy_rd=1.00:0.00 / mixed_ref=1 / me_range=24 / chroma_me=1 / trellis=2 / 8x8dct=0 / cqm=0 / deadzone=21,11 / fast_pskip=1 / chroma_qp_offset=-2 / threads=6 / lookahead_threads=1 / sliced_threads=0 / nr=0 / decimate=1 / interlaced=0 / bluray_compat=0 / stitchable=1 / constrained_intra=0 / bframes=2 / b_pyramid=0 / b_adapt=2 / b_bias=0 / direct=3 / weightb=1 / open_gop=0 / weightp=2 / keyint=250 / keyint_min=24 / scenecut=0 / intra_refresh=0 / rc_lookahead=48 / rc=2pass / mbtree=1 / bitrate=5800 / ratetol=1.0 / qcomp=0.50 / qpmin=6 / qpmax=51 / qpstep=4 / cplxblur=20.0 / qblur=0.5 / vbv_maxrate=8700 / vbv_bufsize=11600 / nal_hrd=vbr / filler=0 / ip_ratio=1.40 / aq=1:1.00
Language : English
Default : Yes
Forced : No
Audio #1
ID : 2
Format : AC-3
Format/Info : Audio Coding 3
Commercial name : Dolby Digital
Codec ID : A_AC3
Duration : 1 h 30 min
Bit rate mode : Constant
Bit rate : 384 kb/s
Channel(s) : 6 channels
Channel layout : L R C LFE Ls Rs
Sampling rate : 48.0 kHz
Frame rate : 31.250 FPS (1536 SPF)
Compression mode : Lossy
Stream size : 247 MiB (6%)
Language : Russian
Service kind : Complete Main
Default : Yes
Forced : No
Audio #2
ID : 3
Format : E-AC-3
Format/Info : Enhanced AC-3
Commercial name : Dolby Digital Plus
Codec ID : A_EAC3
Duration : 1 h 30 min
Bit rate mode : Constant
Bit rate : 640 kb/s
Channel(s) : 6 channels
Channel layout : L R C LFE Ls Rs
Sampling rate : 48.0 kHz
Frame rate : 31.250 FPS (1536 SPF)
Compression mode : Lossy
Stream size : 412 MiB (9%)
Language : English
Service kind : Complete Main
Default : No
Forced : No
Text #1
ID : 4
Format : UTF-8
Codec ID : S_TEXT/UTF8
Codec ID/Info : UTF-8 Plain Text
Duration : 1 h 25 min
Bit rate : 116 b/s
Count of elements : 1521
Stream size : 73.6 KiB (0%)
Language : Russian
Default : No
Forced : No
Text #2
ID : 5
Format : UTF-8
Codec ID : S_TEXT/UTF8
Codec ID/Info : UTF-8 Plain Text
Duration : 1 h 29 min
Bit rate : 105 b/s
Count of elements : 2114
Stream size : 68.9 KiB (0%)
Language : English
Default : No
Forced : No

Скриншот c названием фильма

Скриншоты

Профиль [ЛС]
Показать сообщения:    

Текущее время: 25-Май 00:46

Часовой пояс: UTC ± 0



Вы не можете начинать темы
Вы не можете отвечать на сообщения
Вы не можете редактировать свои сообщения
Вы не можете удалять свои сообщения
Вы не можете голосовать в опросах
Вы не можете прикреплять файлы к сообщениям
Вы не можете скачивать файлы