Статистика раздачи
Размер:  1,36 GB   |    Зарегистрирован:  7 месяцев 4 дня   |    Скачан:  0 раз

Полного источника не было: Никогда

 
     
 
 

Гость ®

Пол:
Не указан

-Стекло / Glass-«Дай волю своим демонам»- -Страна: США
Жанр: фантастика, триллер, драма
Год выпуска: 2019
Продолжительность: 02:09:01-Перевод: Любительский (многоголосый закадровый) HDRezka Studio
Субтитры: нет
Оригинальная аудиодорожка: нет-Режиссер: М. Найт Шьямалан / M. Night Shyamalan-В ролях: Джеймс МакЭвой, Брюс Уиллис, Сэмюэл Л. Джексон, Сара Полсон, Аня Тейлор-Джой, Спенсер Трит Кларк, Чарлэйн Вудард, Люк Кирби, Адам Дэвид Томпсон, М. Найт Шьямалан, Шеннон Дестини Райан, Диана Сильверс, Нина Уиснер, Серж Диденко, Джейн Парк Смит, Кайли Зион, Расселл Познер, Кимберли С. Фербенкс-Описание: В поисках встречи с обладающим фантастическими способностями и снова убивающем девушек Зверем Дэвид Данн выходит на след Кевина Крамба. Но решающая схватка не успевает состояться, наших героев ловят и отправляют в психиатрическую больницу. Там уже содержится хрупкий человек Элайджа Прайс, несколько лет назад устроивший крушение поезда, единственным выжившим в котором оказался Дэвид. Психиатр Элли Стэйпл пытается убедить этих трёх пациентов, что они не обладают сверхспособностями, и всему можно найти рациональное объяснение.- - -Качество видео: BDRip-AVC / Glass.2019..1080p.BluRay.REMUX.AVC.Atmos.TrueHD7.1-iFT
Формат видео: MKV-Видео: MPEG-4 AVC, 956x400 (2.40:1), 23.976 fps, ~1291 kbps avg, 0.141 bit/pixel
Аудио: 48 kHz, AC3 Dolby Digital, 2/0 (L,R) ch, ~192 kbps avg-

MediaInfo

Код:Complete name : D:\Раздача\Стекло (2019) BDRip-AVC_ivanes.mkv
Format : Matroska
Format version : Version 2
File size : 1.36 GiB
Duration : 2 h 9 min
Overall bit rate : 1 513 kb/s
Movie name : Стекло (2019) BDRip-AVC_ivanes
Encoded date : UTC 2019-04-09 20:47:52
Writing application : mkvmerge v4.4.0 ('Die Wiederkehr') сборка от Jan 3 2011 21:40:45
Writing library : libebml v1.0.0 + libmatroska v1.0.0
Cover : Yes
Attachments : cover.jpg
Video
ID : 1
Format : AVC
Format/Info : Advanced Video Codec
Format profile : High@L4.1
Format settings, CABAC : Yes
Format settings, RefFrames : 12 frames
Codec ID : V_MPEG4/ISO/AVC
Duration : 2 h 9 min
Bit rate : 1 291 kb/s
Width : 956 pixels
Height : 400 pixels
Display aspect ratio : 2.40:1
Frame rate mode : Constant
Frame rate : 23.976 (24000/1001) FPS
Color space : YUV
Chroma subsampling : 4:2:0
Bit depth : 8 bits
Scan type : Progressive
Bits/(Pixel*Frame) : 0.141
Stream size : 1.16 GiB (85%)
Title : Rip by ivanes
Writing library : x264 core 157 r2935 545de2f
Encoding settings : cabac=1 / ref=12 / deblock=1:-3:-3 / analyse=0x3:0x113 / me=umh / subme=10 / psy=1 / psy_rd=1.00:0.00 / mixed_ref=1 / me_range=32 / chroma_me=1 / trellis=2 / 8x8dct=1 / cqm=0 / deadzone=21,11 / fast_pskip=0 / chroma_qp_offset=-2 / threads=12 / lookahead_threads=3 / sliced_threads=0 / nr=0 / decimate=1 / interlaced=0 / bluray_compat=0 / constrained_intra=0 / bframes=13 / b_pyramid=2 / b_adapt=2 / b_bias=0 / direct=1 / weightb=1 / open_gop=0 / weightp=2 / keyint=240 / keyint_min=23 / scenecut=40 / intra_refresh=0 / rc_lookahead=60 / rc=crf / mbtree=0 / crf=17.0 / qcomp=0.60 / qpmin=0 / qpmax=69 / qpstep=4 / vbv_maxrate=50000 / vbv_bufsize=62500 / crf_max=0.0 / nal_hrd=none / filler=0 / ip_ratio=1.40 / pb_ratio=1.30 / aq=1:1.00
Default : Yes
Forced : No
Statistics Tags Issue : mkvmerge v10.0.0 ('To Drown In You') 64bit 2019-04-09 20:46:48 / mkvmerge v4.4.0 ('Die Wiederkehr') сборка от Jan 3 2011 21:40:45 2019-04-09 20:47:52
FromStats_BitRate : 1318855
FromStats_Duration : 02:09:01.567000000
FromStats_FrameCount : 185612
FromStats_StreamSize : 1276250881
Audio
ID : 2
Format : AC-3
Format/Info : Audio Coding 3
Format settings, Endianness : Big
Codec ID : A_AC3
Duration : 2 h 9 min
Bit rate mode : Constant
Bit rate : 192 kb/s
Channel(s) : 2 channels
Channel positions : Front: L R
Sampling rate : 48.0 kHz
Frame rate : 31.250 FPS (1536 SPF)
Bit depth : 16 bits
Compression mode : Lossy
Stream size : 177 MiB (13%)
Title : HDRezka Studio
Language : Russian
Service kind : Complete Main
Default : Yes
Forced : No

Скриншоты

[cybertorrent.net].t1898.torrent 
Торрент: Зарегистрирован [ 2019-04-10 16:11 ] · 4D0FE470206B87AE09D510E71A2C9BC216A431D1

Скачать .torrent

Скачать

14 KB

Статус: проверено
Скачан: 0 раз
Размер: 1,36 GB
terms.php
Показать сообщения:    

Текущее время: 14-Ноя 16:58

Часовой пояс: UTC ± 0



Вы не можете начинать темы
Вы не можете отвечать на сообщения
Вы не можете редактировать свои сообщения
Вы не можете удалять свои сообщения
Вы не можете голосовать в опросах
Вы не можете прикреплять файлы к сообщениям
Вы можете скачивать файлы