Статистика раздачи
Размер:  4,06 GB   |    Зарегистрирован:  11 дней   |    Скачан:  0 раз
DL-List: Нет

Полного источника не было: Никогда

 
     
 
 

MAGNAT ®

Пол:
Мужской
Стаж:
1 год 2 месяца
Сообщений:
7949

Опасная роль Джин Сиберг / Seberg
«Кинозвезда против ФБР»
Страна: Великобритания, США
Жанр: Триллер, драма, биография
Год выпуска: 2019
Продолжительность: 01:42:33-Перевод: Профессиональный (дублированный) | (iTunes)
Cубтитры: Английские (Full, SDH)
Оригинальная аудиодорожка: Английский-Режиссёр: Бенедикт Эндрюс / Benedict Andrews
В ролях: Кристен Стюарт, Иван Атталь, Гэбриел Скай, Джек О’Коннелл, Маргарет Куэлли, Колм Мини, Винс Вон, Стивен Рут, Энтони Маки, Виктория Барабаш
Описание: Конец 60-х. Красавица Джин Сиберг, любимица французской новой волны, возвращается в Лос-Анджелес. От предложений новых ролей нет отбоя, она — новая икона Голливуда. Но внезапный головокружительный роман с лидером партии Черные пантеры делают Джин мишенью спецслужб. Круглосуточная слежка ФБР и провокации грозят разрушить не только ее карьеру, но и жизнь.-Тип релиза: WEB-DL 720p
Контейнер: MKV-Видео: AVC/H.264, 1248x520, 4643 Kbps, 23.976 fps
Аудио 1: Русский | AC-3, 6 ch, 384 Kbps, 48.0 KHz
Аудио 2: Английский | E-AC-3, 6 ch, 640 Kbps, 48.0 KHz
-

MediaInfo

Код:
General
Unique ID : 202018662003473336612610294513033956444 (0x97FB6109460821B2B88E55AB57D24C5C)
Complete name : /Volumes/Promise 2/Seberg.WEB-DL.720p.mkv
Format : Matroska
Format version : Version 4
File size : 4.06 GiB
Duration : 1h 42mn
Overall bit rate : 5 669 Kbps
Movie name : Seberg WEB-DL 720p
Encoded date : UTC 2020-05-17 10:33:10
Writing application : mkvmerge v46.0.0 ('No Deeper Escape') 64-bit
Writing library : libebml v1.3.10 + libmatroska v1.5.2
Video
ID : 1
Format : AVC
Format/Info : Advanced Video Codec
Format profile : High@L3.1
Format settings : CABAC / 4 Ref Frames
Format settings, CABAC : Yes
Format settings, ReFrames : 4 frames
Codec ID : V_MPEG4/ISO/AVC
Duration : 1h 42mn
Bit rate mode : Constant
Bit rate : 4 643 Kbps
Nominal bit rate : 6 000 Kbps
Width : 1 248 pixels
Height : 520 pixels
Display aspect ratio : 2.40:1
Frame rate mode : Constant
Frame rate : 23.976 (24000/1001) fps
Color space : YUV
Chroma subsampling : 4:2:0
Bit depth : 8 bits
Scan type : Progressive
Bits/(Pixel*Frame) : 0.298
Stream size : 3.33 GiB (82%)
Language : English
Default : Yes
Forced : No
Color range : Limited
Color primaries : BT.709
Transfer characteristics : BT.709
Matrix coefficients : BT.709
Audio #1
ID : 2
Format : AC-3
Format/Info : Audio Coding 3
Commercial name : Dolby Digital
Codec ID : A_AC3
Duration : 1h 42mn
Bit rate mode : Constant
Bit rate : 384 Kbps
Channel(s) : 6 channels
Channel layout : L R C LFE Ls Rs
Sampling rate : 48.0 KHz
Frame rate : 31.250 fps (1536 SPF)
Compression mode : Lossy
Stream size : 281 MiB (7%)
Title : Russian Dub iTunes
Language : Russian
Service kind : Complete Main
Default : Yes
Forced : No
Audio #2
ID : 3
Format : E-AC-3
Format/Info : Enhanced AC-3
Commercial name : Dolby Digital Plus
Codec ID : A_EAC3
Duration : 1h 42mn
Bit rate mode : Constant
Bit rate : 640 Kbps
Channel(s) : 6 channels
Channel layout : L R C LFE Ls Rs
Sampling rate : 48.0 KHz
Frame rate : 31.250 fps (1536 SPF)
Compression mode : Lossy
Stream size : 469 MiB (11%)
Title : English Original
Language : English
Service kind : Complete Main
Default : No
Forced : No
Text #1
ID : 4
Format : UTF-8
Codec ID : S_TEXT/UTF8
Codec ID/Info : UTF-8 Plain Text
Duration : 1h 30mn
Bit rate : 50 bps
Count of elements : 1110
Stream size : 33.1 KiB (0%)
Title : English full
Language : English
Default : No
Forced : No
Text #2
ID : 5
Format : UTF-8
Codec ID : S_TEXT/UTF8
Codec ID/Info : UTF-8 Plain Text
Duration : 1h 41mn
Bit rate : 58 bps
Count of elements : 1485
Stream size : 43.6 KiB (0%)
Title : English SDH
Language : English
Default : No
Forced : No
Menu
00:00:00.000 : en:1
00:05:20.219 : en:2
00:10:13.178 : en:3
00:15:38.294 : en:4
00:21:51.834 : en:5
00:30:25.055 : en:6
00:36:41.472 : en:7
00:44:34.278 : en:8
00:53:36.778 : en:9
01:00:49.085 : en:10
01:08:46.936 : en:11
01:14:50.340 : en:12
01:21:58.559 : en:13
01:26:13.187 : en:14
01:27:36.728 : en:15
01:34:58.418 : en:16

Скриншоты

[cybertorrent.net].t18976.torrent 
Торрент: Зарегистрирован [ 2020-05-22 18:06 ] · 1ECEE654D4B2BC1395CF59BB7605C02CFDFD969A

Скачать .torrent

Скачать

41 KB

Статус: проверено
Скачан: 0 раз
Размер: 4,06 GB  ·  Тип торрента
terms.php
Профиль [ЛС]
Показать сообщения:    

Текущее время: 03-Июн 00:58

Часовой пояс: UTC ± 0



Вы не можете начинать темы
Вы не можете отвечать на сообщения
Вы не можете редактировать свои сообщения
Вы не можете удалять свои сообщения
Вы не можете голосовать в опросах
Вы не можете прикреплять файлы к сообщениям
Вы можете скачивать файлы