Статистика раздачи
Размер:  11,58 GB   |    Зарегистрирован:  11 дней   |    Скачан:  0 раз
DL-List: Нет

Полного источника не было: Никогда

 
     
 
 

MAGNAT ®

Пол:
Мужской
Стаж:
1 год 2 месяца
Сообщений:
7949

Вызов / Set It Off
Director's Cut / Режиссерская версия
Страна: США
Студия: New Line Cinema, Peak Productions
Жанр: боевик, триллер, драма, мелодрама, криминал
Год выпуска: 1996
Продолжительность: 02:03:54--Перевод 1: Авторский (одноголосный закадровый)
Перевод 2: Одноголосный закадровый
Субтитры: русские, английские
Оригинальная аудиодорожка: английский--Режиссер: Ф. Гэри Грей / F. Gary Gray--В ролях: Джада Пинкетт Смит, Куин Латифа, Вивика А. Фокс, Кимберли Элиз, Джон К. МакГинли, Блэр Андервуд, Винсент Баумм, Ван Баумм, Чаз Ламар Шеперд, Томас Джеффресон Берд--Описание: Живут в негритянском квартале Лос-Анджелеса четыре подруги — молодые женщины: Стоуни, Франческа, Тити и Клеопатра. Одна теряет работу в банке, у второй убивают брата, третья лишается ребенка, а четвертая давно поставила крест на своей жизни. Несправедливость и нищета заставляют их бросить вызов системе, делающей из людей рабов.
Они берутся за оружие и начинают грабить банки. Раз-другой у них все проходит гладко, но их подставляет их же «чернокожий брат», укравший награбленные ими деньги. И тогда они решают «сделать это в последний раз».--Тип релиза: BDRip 720p
Контейнер: MKV
Видео кодек: H.264
Аудио кодек: DTS, AC-3
Видео: MPEG4/AVC, 2,40:1, 23.976 (24000/1001) FPS, 1280x534p, 9905 kb/s
Аудио 1: Русский, AC-3, 48.0 kHz, 5.1, 448 kb/s - авторский одноголосный Юрий Живов
Аудио 2: Русский, DTS, 48.0 kHz, 5.1, 1509 kb/s, 16 bits - одноголосyый Lenape
Аудио 3: Английский, DTS, 48.0 kHz, 5.1, 1509 kb/s, 16 bits
Формат субтитров: softsub (SRT)

MediaInfo

x264
x264 [info]: profile Progressive High, level 4.1, 4:2:0, 8-bit
x264 [info]: frame I:1147 Avg QP:16.36 size:119963
x264 [info]: frame P:34999 Avg QP:18.29 size: 67219
x264 [info]: frame B:142100 Avg QP:19.34 size: 47250
x264 [info]: consecutive B-frames: 1.2% 1.4% 3.8% 21.1% 14.4% 42.6% 5.5% 4.0% 1.8% 2.1% 0.7% 0.5% 0.2% 0.1% 0.1% 0.1% 0.3%
x264 [info]: kb/s:9904.81
encoded 178246 frames, 1.92 fps, 9904.81 kb/s
Общее
Формат : Matroska
Версия формата : Version 4
Размер файла : 11,6 Гбайт
Продолжительность : 2 ч. 3 м.
Общий поток : 13,4 Мбит/сек
Название фильма : BDINFO.SET IT OFF (Director's Cut) 1996 - Rutracker
Дата кодирования : UTC 2020-05-17 13:40:09
Программа кодирования : mkvmerge v46.0.0 ('No Deeper Escape') 64-bit
Библиотека кодирования : libebml v1.3.10 + libmatroska v1.5.2
Обложка : Yes
Attachments : cover.jpg
Видео
Идентификатор : 1
Формат : AVC
Формат/Информация : Advanced Video Codec
Профиль формата : High@L4.1
Настройки формата : CABAC / 12 Ref Frames
Параметр CABAC формата : Да
Параметр RefFrames формата : 12 кадров
Идентификатор кодека : V_MPEG4/ISO/AVC
Продолжительность : 2 ч. 3 м.
Битрейт : 9 905 Кбит/сек
Ширина : 1 280 пикселей
Высота : 534 пикселя
Соотношение сторон : 2,40:1
Режим частоты кадров : Постоянный
Частота кадров : 23,976 (24000/1001) кадра/сек
Цветовое пространство : YUV
Субдискретизация насыщенности : 4:2:0
Битовая глубина : 8 бит
Тип развёртки : Прогрессивная
Бит/(Пиксели*Кадры) : 0.604
Размер потока : 8,57 Гбайт (74%)
Заголовок : BDINFO.SET IT OFF (Director's Cut) 1996 - ripped by <<LION1234>>
Библиотека кодирования : x264 core 157 r2969 d4099dd
Настройки программы : cabac=1 / ref=12 / deblock=1:-2:-2 / analyse=0x3:0x113 / me=umh / subme=10 / psy=1 / psy_rd=1.00:0.00 / mixed_ref=1 / me_range=32 / chroma_me=1 / trellis=2 / 8x8dct=1 / cqm=0 / deadzone=21,11 / fast_pskip=0 / chroma_qp_offset=-2 / threads=6 / lookahead_threads=1 / sliced_threads=0 / nr=0 / decimate=0 / interlaced=0 / bluray_compat=0 / constrained_intra=0 / bframes=16 / b_pyramid=2 / b_adapt=2 / b_bias=0 / direct=1 / weightb=1 / open_gop=0 / weightp=2 / keyint=240 / keyint_min=23 / scenecut=40 / intra_refresh=0 / rc_lookahead=40 / rc=crf / mbtree=0 / crf=17.6 / qcomp=0.67 / qpmin=0 / qpmax=69 / qpstep=4 / vbv_maxrate=62500 / vbv_bufsize=78125 / crf_max=0.0 / nal_hrd=none / filler=0 / ip_ratio=1.30 / pb_ratio=1.10 / aq=3:0.76
Default : Да
Forced : Нет
Аудио #1
Идентификатор : 2
Формат : AC-3
Формат/Информация : Audio Coding 3
Коммерческое название : Dolby Digital
Идентификатор кодека : A_AC3
Продолжительность : 2 ч. 3 м.
Вид битрейта : Постоянный
Битрейт : 448 Кбит/сек
Каналы : 6 каналов
Channel layout : L R C LFE Ls Rs
Частота : 48,0 КГц
Частота кадров : 31,250 кадров/сек (1536 SPF)
Метод сжатия : С потерями
Размер потока : 397 Мбайт (3%)
Заголовок : русский AVO Живов
Язык : Russian
Service kind : Complete Main
Default : Да
Forced : Нет
Аудио #2
Идентификатор : 3
Формат : DTS
Формат/Информация : Digital Theater Systems
Идентификатор кодека : A_DTS
Продолжительность : 2 ч. 3 м.
Вид битрейта : Постоянный
Битрейт : 1 509 Кбит/сек
Каналы : 6 каналов
Channel layout : C L R Ls Rs LFE
Частота : 48,0 КГц
Частота кадров : 93,750 кадра/сек (512 SPF)
Битовая глубина : 16 бит
Метод сжатия : С потерями
Размер потока : 1,31 Гбайт (11%)
Заголовок : русский VO Lenape
Язык : Russian
Default : Нет
Forced : Нет
Аудио #3
Идентификатор : 4
Формат : DTS
Формат/Информация : Digital Theater Systems
Идентификатор кодека : A_DTS
Продолжительность : 2 ч. 3 м.
Вид битрейта : Постоянный
Битрейт : 1 509 Кбит/сек
Каналы : 6 каналов
Channel layout : C L R Ls Rs LFE
Частота : 48,0 КГц
Частота кадров : 93,750 кадра/сек (512 SPF)
Битовая глубина : 16 бит
Метод сжатия : С потерями
Размер потока : 1,31 Гбайт (11%)
Заголовок : английский
Язык : English
Default : Нет
Forced : Нет
Текст #1
Идентификатор : 5
Формат : UTF-8
Идентификатор кодека : S_TEXT/UTF8
Идентификатор кодека/Информация : UTF-8 Plain Text
Продолжительность : 1 ч. 55 м.
Битрейт : 95 бит/сек
Count of elements : 1538
Размер потока : 81,0 Кбайт (0%)
Заголовок : русские
Язык : Russian
Default : Нет
Forced : Нет
Текст #2
Идентификатор : 6
Формат : UTF-8
Идентификатор кодека : S_TEXT/UTF8
Идентификатор кодека/Информация : UTF-8 Plain Text
Продолжительность : 1 ч. 55 м.
Битрейт : 62 бит/сек
Count of elements : 1587
Размер потока : 53,2 Кбайт (0%)
Заголовок : английские
Язык : English
Default : Нет
Forced : Нет
Меню
00:00:00.000 : :Chapter 1
00:04:01.449 : :Chapter 2
00:06:40.733 : :Chapter 3
00:12:01.761 : :Chapter 4
00:15:55.621 : :Chapter 5
00:18:54.049 : :Chapter 6
00:23:09.262 : :Chapter 7
00:28:45.348 : :Chapter 8
00:31:42.191 : :Chapter 9
00:35:29.126 : :Chapter 10
00:38:48.617 : :Chapter 11
00:42:42.559 : :Chapter 12
00:44:46.975 : :Chapter 13
00:48:36.997 : :Chapter 14
00:53:27.954 : :Chapter 15
00:57:43.626 : :Chapter 16
01:01:16.005 : :Chapter 17
01:05:34.388 : :Chapter 18
01:08:56.381 : :Chapter 19
01:12:12.244 : :Chapter 20
01:16:16.947 : :Chapter 21
01:20:53.139 : :Chapter 22
01:24:32.442 : :Chapter 23
01:29:15.099 : :Chapter 24
01:32:42.555 : :Chapter 25
01:35:59.462 : :Chapter 26
01:39:34.134 : :Chapter 27
01:42:14.795 : :Chapter 28
01:46:35.847 : :Chapter 29
01:50:28.872 : :Chapter 30
01:53:34.224 : :Chapter 31
01:57:30.668 : :Chapter 32
02:03:54.135 : :Chapter 33

Скриншоты

[cybertorrent.net].t18972.torrent 
Торрент: Зарегистрирован [ 2020-05-22 18:04 ] · 88BCF6444CA41038AFC2E11DF598D3A37F00A1B3

Скачать .torrent

Скачать

29 KB

Статус: проверено
Скачан: 0 раз
Размер: 11,58 GB  ·  Тип торрента
terms.php
Профиль [ЛС]
Показать сообщения:    

Текущее время: 02-Июн 23:41

Часовой пояс: UTC ± 0



Вы не можете начинать темы
Вы не можете отвечать на сообщения
Вы не можете редактировать свои сообщения
Вы не можете удалять свои сообщения
Вы не можете голосовать в опросах
Вы не можете прикреплять файлы к сообщениям
Вы можете скачивать файлы