Статистика раздачи
Размер:  5,1 GB   |    Зарегистрирован:  11 дней   |    Скачан:  0 раз
DL-List: Нет

Полного источника не было: Никогда

 
     
 
 

MAGNAT ®

Пол:
Мужской
Стаж:
1 год 2 месяца
Сообщений:
7949

Игра Джеральда / Gerald's Game
«Some games you play, some you survive»
Страна: США
Студия: Intrepid Pictures
Жанр: ужасы, триллер
Год выпуска: 2017
Продолжительность: 01:43:24
Перевод 1: Профессиональный (многоголосый закадровый) (Jaskier)
Перевод 2: Профессиональный (многоголосый закадровый) (FocusStudio)
Субтитры: русские (Full), английские (Full)
Оригинальная аудиодорожка: английский
Режиссер: Майк Флэнеган / Mike Flanagan
В ролях: Карла Гуджино, Генри Томас, Брюс Гринвуд, Карел Стрёйкен, Кейт Сигел, Кьяра Аурелия, Кимберли Баттиста, Натали Роерс, Маркус Дешон Ричардсон
Описание: После того, как ее муж падает с сердечным приступом в разгаре интимной игры, молодая женщина остается прикованной к кровати. Но ее одиночество будет недолгим. Все страхи, которые она когда-либо испытывала в жизни, вернутся в одночасье в уединенный дом, мгновенно превратившийся в зловещую камеру пыток.
Тип релиза: WEBRip 1080p
Контейнер: MKV
Видео: MPEG4/AVC, 1920x804, 6 099 kb/s, 23.976 FPS
Аудио 1: 48.0 kHz, AC-3, 5.1, 384 kb/s | RUS | MVO | Jaskier
Аудио 2: 48.0 kHz, AC-3, 2.0, 192 kb/s | RUS | MVO | FocusStudio
Аудио 3: 48.0 kHz, AC-3, 5.1, 384 kb/s | ENG | Оригинал
Формат субтитров: softsub (SRT)

MediaInfo

General
Unique ID : 94450774620907434597309392758200014134 (0x470E8EB90F762C09C3123C989B0B1536)
Complete name : Geralds.Game.2017.1080p.NF.WEBRip.DD5.1.x264.RUS.MVO-NTb.mkv
Format : Matroska
Format version : Version 4
File size : 5.10 GiB
Duration : 1 h 43 min
Overall bit rate : 7 061 kb/s
Encoded date : UTC 2020-05-17 15:50:09
Writing application : mkvmerge v45.0.0 ('Heaven in Pennies') 64-bit
Writing library : libebml v1.3.10 + libmatroska v1.5.2
Cover : Yes
Attachments : cover.jpg
Video
ID : 1
Format : AVC
Format/Info : Advanced Video Codec
Format profile : High@L4.1
Format settings : CABAC / 5 Ref Frames
Format settings, CABAC : Yes
Format settings, Reference fra : 5 frames
Codec ID : V_MPEG4/ISO/AVC
Duration : 1 h 43 min
Bit rate : 6 099 kb/s
Width : 1 920 pixels
Height : 804 pixels
Display aspect ratio : 2.40:1
Frame rate mode : Constant
Frame rate : 23.976 (24000/1001) FPS
Color space : YUV
Chroma subsampling : 4:2:0
Bit depth : 8 bits
Scan type : Progressive
Bits/(Pixel*Frame) : 0.165
Stream size : 4.41 GiB (86%)
Writing library : x264 core 144 r2525 40bb568
Encoding settings : cabac=1 / ref=5 / deblock=1:-3:-3 / analyse=0x3:0x133 / me=umh / subme=10 / psy=1 / psy_rd=1.00:0.00 / mixed_ref=1 / me_range=48 / chroma_me=1 / trellis=2 / 8x8dct=1 / cqm=0 / deadzone=21,11 / fast_pskip=0 / chroma_qp_offset=-2 / threads=24 / lookahead_threads=4 / sliced_threads=0 / nr=0 / decimate=0 / interlaced=0 / bluray_compat=0 / constrained_intra=0 / bframes=8 / b_pyramid=2 / b_adapt=2 / b_bias=0 / direct=3 / weightb=1 / open_gop=0 / weightp=2 / keyint=250 / keyint_min=23 / scenecut=40 / intra_refresh=0 / rc=crf / mbtree=0 / crf=18.0 / qcomp=0.60 / qpmin=0 / qpmax=69 / qpstep=4 / ip_ratio=1.30 / pb_ratio=1.20 / aq=3:0.80
Language : English
Default : Yes
Forced : No
Audio #1
ID : 2
Format : AC-3
Format/Info : Audio Coding 3
Commercial name : Dolby Digital
Codec ID : A_AC3
Duration : 1 h 43 min
Bit rate mode : Constant
Bit rate : 384 kb/s
Channel(s) : 6 channels
Channel layout : L R C LFE Ls Rs
Sampling rate : 48.0 kHz
Frame rate : 31.250 FPS (1536 SPF)
Compression mode : Lossy
Stream size : 284 MiB (5%)
Title : MVO - Jaskier
Language : Russian
Service kind : Complete Main
Default : Yes
Forced : No
Audio #2
ID : 3
Format : AC-3
Format/Info : Audio Coding 3
Commercial name : Dolby Digital
Codec ID : A_AC3
Duration : 1 h 43 min
Bit rate mode : Constant
Bit rate : 192 kb/s
Channel(s) : 2 channels
Channel layout : L R
Sampling rate : 48.0 kHz
Frame rate : 31.250 FPS (1536 SPF)
Compression mode : Lossy
Stream size : 142 MiB (3%)
Title : MVO - FocusStudio
Language : Russian
Service kind : Complete Main
Default : No
Forced : No
Audio #3
ID : 4
Format : AC-3
Format/Info : Audio Coding 3
Commercial name : Dolby Digital
Codec ID : A_AC3
Duration : 1 h 43 min
Bit rate mode : Constant
Bit rate : 384 kb/s
Channel(s) : 6 channels
Channel layout : L R C LFE Ls Rs
Sampling rate : 48.0 kHz
Frame rate : 31.250 FPS (1536 SPF)
Compression mode : Lossy
Stream size : 284 MiB (5%)
Title : Original
Language : English
Service kind : Complete Main
Default : No
Forced : No
Text #1
ID : 5
Format : UTF-8
Codec ID : S_TEXT/UTF8
Codec ID/Info : UTF-8 Plain Text
Duration : 1 h 35 min
Bit rate : 79 b/s
Count of elements : 1020
Stream size : 55.3 KiB (0%)
Title : Full
Language : Russian
Default : No
Forced : No
Text #2
ID : 6
Format : UTF-8
Codec ID : S_TEXT/UTF8
Codec ID/Info : UTF-8 Plain Text
Duration : 1 h 36 min
Bit rate : 48 b/s
Count of elements : 1060
Stream size : 34.2 KiB (0%)
Title : Full
Language : English
Default : No
Forced : No

Скриншоты

[cybertorrent.net].t18971.torrent 
Торрент: Зарегистрирован [ 2020-05-22 18:03 ] · 08CE922E315C90FA66973AB2132A7D77649AA6BC

Скачать .torrent

Скачать

13 KB

Статус: проверено
Скачан: 0 раз
Размер: 5,1 GB  ·  Тип торрента
terms.php
Профиль [ЛС]
Показать сообщения:    

Текущее время: 03-Июн 00:55

Часовой пояс: UTC ± 0



Вы не можете начинать темы
Вы не можете отвечать на сообщения
Вы не можете редактировать свои сообщения
Вы не можете удалять свои сообщения
Вы не можете голосовать в опросах
Вы не можете прикреплять файлы к сообщениям
Вы можете скачивать файлы