Статистика раздачи
Размер:  2,25 GB   |    Зарегистрирован:  7 месяцев 8 дней   |    Скачан:  0 раз

Полного источника не было: Никогда

 
     
 
 

Гость ®

Пол:
Не указан

Анютины глазки
Год выпуска: 2019
Производство: Кинокомпания "Русское"
Жанр: драма
Продолжительность: ~00:44:00 серия
Субтитры: нет
Режиссёр: Сергей Краснов
В ролях: Ирина Вербицкая, Вероника Корниенко, Андрей Фролов, Дарья Белоусова, Никита Калинин, Андрей Заводюк, Анна Здор, Ася Калинина, Александра Нижегородова, Александра Киселёва, Сергей Карасевич
Описание: Первая любовь школьницы Гали настолько вскружила ей голову, что обернулась беременностью. Мать девушки Лидия в ярости: она сама воспитывала дочь одна и не понаслышке знает о незавидной участи матери-одиночки! Медлить нельзя, и Лидия идет на крайнюю меру. Она отказывается от новорожденного внука, солгав дочери, что младенец погиб… Много лет спустя Галя узнаёт страшную правду о своём прошлом. Теперь женщине во что бы то ни стало нужно исправить ошибку своей матери и вернуть потерянное счастье, которого её лишили.

Реклама: Нет.
Кинопоиск
Все раздачи сериала
Sample
Качество: WEBRip - Files-x
Формат: AVI
Видео кодек: XviD
Аудио кодек: AC3
Видео: 720x400 (1.80:1), 25 fps, XviD build 73 ~1600 kbps avg, 0.222 bit/pixel
Аудио: 48.0 kHz, AC3 Dolby Digital, 2/0 (L,R) ch, ~ 192 kbps

MI

General
Complete name : D:\Анютины глазки. 2019.WEB-DLRip. Files-x\01. Анютины глазки. 2019.WEB-DLRip. Files-x.avi
Format : AVI
Format/Info : Audio Video Interleave
File size : 1.12 GiB
Duration : 1 h 29 min
Overall bit rate : 1 802 kb/s
Writing application : VirtualDubMod 1.5.10.3 | www.virtualdub-fr.org || (build 2550/release)
Writing library : VirtualDubMod build 2550/release
Video
ID : 0
Format : MPEG-4 Visual
Format profile : Advanced Simple@L5
Format settings : BVOP1 / Custom Matrix
Format settings, BVOP : 1
Format settings, QPel : No
Format settings, GMC : No warppoints
Format settings, Matrix : Custom
Codec ID : XVID
Codec ID/Hint : XviD
Duration : 1 h 29 min
Bit rate : 1 600 kb/s
Width : 720 pixels
Height : 400 pixels
Display aspect ratio : 16:9
Frame rate : 25.000 FPS
Color space : YUV
Chroma subsampling : 4:2:0
Bit depth : 8 bits
Scan type : Progressive
Compression mode : Lossy
Bits/(Pixel*Frame) : 0.222
Stream size : 1 023 MiB (89%)
Writing library : XviD 73
Audio
ID : 1
Format : AC-3
Format/Info : Audio Coding 3
Codec ID : 2000
Duration : 1 h 29 min
Bit rate mode : Constant
Bit rate : 192 kb/s
Channel(s) : 2 channels
Channel positions : Front: L R
Sampling rate : 48.0 kHz
Frame rate : 31.250 FPS (1536 SPF)
Bit depth : 16 bits
Compression mode : Lossy
Stream size : 123 MiB (11%)
Alignment : Split accross interleaves
Interleave, duration : 40 ms (1.00 video frame)
Interleave, preload duratio : 500 ms
Service kind : Complete Main

Скриншоты


[cybertorrent.net].t1881.torrent 
Торрент: Зарегистрирован [ 2019-04-09 15:46 ] · 557340BCE716395AABCC44EFA23D82D44D16D29A

Скачать .torrent

Скачать

12 KB

Статус: проверено
Скачан: 0 раз
Размер: 2,25 GB
terms.php
Показать сообщения:    

Текущее время: 17-Ноя 18:05

Часовой пояс: UTC ± 0



Вы не можете начинать темы
Вы не можете отвечать на сообщения
Вы не можете редактировать свои сообщения
Вы не можете удалять свои сообщения
Вы не можете голосовать в опросах
Вы не можете прикреплять файлы к сообщениям
Вы можете скачивать файлы