Статистика раздачи
Размер:  5,21 GB   |    Зарегистрирован:  8 месяцев   |    Скачан:  0 раз
Сидов:  3  [  0 KB/s  ]  
 
     
 
 

Гость ®

Пол:
Не указан

Анютины глазки
Год выпуска: 2019
Производство: Кинокомпания "Русское"
Жанр: драма
Продолжительность: ~00:44:00 серия
Субтитры: нет
Режиссёр: Сергей Краснов
В ролях: Ирина Вербицкая, Вероника Корниенко, Андрей Фролов, Дарья Белоусова, Никита Калинин, Андрей Заводюк, Анна Здор, Ася Калинина, Александра Нижегородова, Александра Киселёва, Сергей Карасевич
Описание: Первая любовь школьницы Гали настолько вскружила ей голову, что обернулась беременностью. Мать девушки Лидия в ярости: она сама воспитывала дочь одна и не понаслышке знает о незавидной участи матери-одиночки! Медлить нельзя, и Лидия идет на крайнюю меру. Она отказывается от новорожденного внука, солгав дочери, что младенец погиб… Много лет спустя Галя узнаёт страшную правду о своём прошлом. Теперь женщине во что бы то ни стало нужно исправить ошибку своей матери и вернуть потерянное счастье, которого её лишили.

Реклама: Нет.
Кинопоиск
Все раздачи сериала
Sample
Качество: HDTVRip 720p - Nikolspup
Формат: MKV
Видео кодек: H.264
Аудио кодек: AC3
Видео: MPEG4 AVC Video, H264, 16:9, 1280x720, 25 fps, ~4000 kbps, 0.174 bit/pixel
Аудио: AC3 Dolby Digital, 48 kHz, 2/0 (L,R) ch, 192 kbp

MI

General
Unique ID : 231109270752360088597387944043454678483 (0xADDE06C87DA4BDBDB1EC26DCA20C45D3)
Complete name : D:\Anyutiny.glazki.2019.HDTVRip.(720p).ExKinoRay\Anyutiny.glazki.(01.seriya.iz.02).2019.HDTVRip.(720p).ExKinoRay.mkv
Format : Matroska
Format version : Version 4 / Version 2
File size : 2.60 GiB
Duration : 1 h 28 min
Overall bit rate : 4 194 kb/s
Encoded date : UTC 2019-04-07 17:57:29
Writing application : mkvmerge v7.8.0 ('River Man') 32bit built on Mar 27 2015 16:18:02
Writing library : libebml v1.3.1 + libmatroska v1.4.2
Video
ID : 1
Format : AVC
Format/Info : Advanced Video Codec
Format profile : High@L4.1
Format settings : CABAC / 9 Ref Frames
Format settings, CABAC : Yes
Format settings, ReFrames : 9 frames
Codec ID : V_MPEG4/ISO/AVC
Duration : 1 h 28 min
Bit rate : 4 000 kb/s
Width : 1 280 pixels
Height : 720 pixels
Display aspect ratio : 16:9
Frame rate mode : Constant
Frame rate : 25.000 FPS
Color space : YUV
Chroma subsampling : 4:2:0
Bit depth : 8 bits
Scan type : Progressive
Bits/(Pixel*Frame) : 0.174
Stream size : 2.48 GiB (95%)
Writing library : x264 core 146 r2538 121396c
Encoding settings : cabac=1 / ref=9 / deblock=1:-3:-3 / analyse=0x3:0x133 / me=umh / subme=10 / psy=1 / psy_rd=1.00:0.20 / mixed_ref=1 / me_range=32 / chroma_me=1 / trellis=2 / 8x8dct=1 / cqm=0 / deadzone=21,11 / fast_pskip=1 / chroma_qp_offset=-3 / threads=12 / lookahead_threads=8 / sliced_threads=0 / nr=0 / decimate=1 / interlaced=0 / bluray_compat=0 / constrained_intra=0 / bframes=11 / b_pyramid=2 / b_adapt=2 / b_bias=0 / direct=1 / weightb=1 / open_gop=0 / weightp=2 / keyint=250 / keyint_min=25 / scenecut=40 / intra_refresh=0 / rc=2pass / mbtree=0 / bitrate=4000 / ratetol=1.0 / qcomp=0.60 / qpmin=0 / qpmax=69 / qpstep=4 / cplxblur=20.0 / qblur=0.5 / ip_ratio=1.40 / pb_ratio=1.30 / aq=3:1.00
Default : No
Forced : No
Color range : Limited
Color primaries : BT.709
Transfer characteristics : BT.709
Matrix coefficients : BT.709
Audio
ID : 2
Format : AC-3
Format/Info : Audio Coding 3
Codec ID : A_AC3
Duration : 1 h 28 min
Bit rate mode : Constant
Bit rate : 192 kb/s
Channel(s) : 2 channels
Channel positions : Front: L R
Sampling rate : 48.0 kHz
Frame rate : 31.250 FPS (1536 SPF)
Bit depth : 16 bits
Compression mode : Lossy
Stream size : 122 MiB (5%)
Language : Russian
Service kind : Complete Main
Default : Yes
Forced : Yes

Скриншоты


[cybertorrent.net].t1880.torrent 
Торрент: Зарегистрирован [ 2019-04-09 15:46 ] · 1AF2E3616F5C577B9344CE900D18D40BCB24C6D3

Скачать .torrent

Скачать

27 KB

Статус: проверено
Скачан: 0 раз
Размер: 5,21 GB
terms.php
Показать сообщения:    

Текущее время: 10-Дек 15:28

Часовой пояс: UTC ± 0



Вы не можете начинать темы
Вы не можете отвечать на сообщения
Вы не можете редактировать свои сообщения
Вы не можете удалять свои сообщения
Вы не можете голосовать в опросах
Вы не можете прикреплять файлы к сообщениям
Вы можете скачивать файлы