Статистика раздачи
Размер:  131 MB   |    Зарегистрирован:  8 месяцев 23 дня   |    Скачан:  0 раз

Полного источника не было: Никогда

 
     
 
 

Гость ®

Пол:
Не указан

Ралли / Ралi
Страна: Украина
Жанр: мультфильм
Продолжительность: 00:12:46
Год выпуска: 1994
Перевод: субтитры (alex.n42)
Русские субтитры: есть
Режиссёр: Ефрем Пружанский
Описание: Третий мультфильм о приключениях собачки по имени Муви.
На этот раз Муви и её подопечные Стас и Леся участвуют в автомобильных гонках на самодельной машинке, переделанной из велосипеда.
Другие фильмы из этой серии:
Новогоднее приключение Муви (1993) - http://cybertorrent.ru/forum/viewtopic.php?t=5667322
Муви - няня (1994) - http://cybertorrent.ru/forum/viewtopic.php?t=5667794
Сафари (1996) - http://cybertorrent.ru/forum/viewtopic.php?t=5669637
Качество: WEBRip
Формат: AVI
Видео: 1293 kbps, 592х464 (1.276), 25.000 fps, MPEG-4 Visual (XviD)
Аудио: 128 kbps, 44.1 kHz, 2 channels, MPEG Audio (MP3)
Субтитры: softsub (SRT)

Подробные технические данные

General
Complete name : Ралли (1994).avi
Format : AVI
Format/Info : Audio Video Interleave
File size : 131 MiB
Duration : 12mn 46s
Overall bit rate : 1 431 Kbps
Writing application : VirtualDubMod 1.5.10.2 (build 2540/release)
Writing library : VirtualDubMod build 2540/release
Video
ID : 0
Format : MPEG-4 Visual
Format profile : Advanced Simple@L4
Format settings, BVOP : 2
Format settings, QPel : No
Format settings, GMC : No warppoints
Format settings, Matrix : Default (H.263)
Codec ID : XVID
Codec ID/Hint : XviD
Duration : 12mn 46s
Bit rate : 1 293 Kbps
Width : 592 pixels
Height : 464 pixels
Display aspect ratio : 1.276
Frame rate : 25.000 fps
Color space : YUV
Chroma subsampling : 4:2:0
Bit depth : 8 bits
Scan type : Progressive
Compression mode : Lossy
Bits/(Pixel*Frame) : 0.188
Stream size : 118 MiB (90%)
Writing library : XviD 73
Audio
ID : 1
Format : MPEG Audio
Format version : Version 1
Format profile : Layer 3
Codec ID : 55
Codec ID/Hint : MP3
Duration : 12mn 46s
Bit rate mode : Constant
Bit rate : 128 Kbps
Channel(s) : 2 channels
Sampling rate : 44.1 KHz
Compression mode : Lossy
Stream size : 11.7 MiB (9%)
Alignment : Split accross interleaves
Interleave, duration : 40 ms (1.00 video frame)
Interleave, preload duration : 500 ms

Скриншоты

[cybertorrent.net].t188.torrent 
Торрент: Зарегистрирован [ 2019-03-18 10:04 ] · BA320CED90F3478AED47FA0BA71E363BAFDB0796

Скачать .torrent

Скачать

11 KB

Статус: проверено
Скачан: 0 раз
Размер: 131 MB
terms.php
Показать сообщения:    

Текущее время: 11-Дек 07:06

Часовой пояс: UTC ± 0



Вы не можете начинать темы
Вы не можете отвечать на сообщения
Вы не можете редактировать свои сообщения
Вы не можете удалять свои сообщения
Вы не можете голосовать в опросах
Вы не можете прикреплять файлы к сообщениям
Вы можете скачивать файлы