Статистика раздачи
Размер:  745 MB   |    Зарегистрирован:  8 месяцев 5 дней   |    Скачан:  0 раз

Полного источника не было: Никогда

 
     
 
 

Гость ®

Пол:
Не указан

Как пройти в библиотеку?
Год выпуска: 2011
Жанр: криминальный фильм, мелодрама
Продолжительность: 01:29:51.879 (134797 frames)
Субтитры: нет
Режиссер: Евгений Малков
В ролях: Тарас Бибич, Татьяна Черкасова, Никита Емшанов, Людмила Ширяева, Евгений Сиротин, Ромуальд Макаренко, Валерий Дегтярь, Александр Карпухов, Роман Жилкин, Олег Жилин, Сергей Евсеев, Михаил Богданов, Константин Бараев, Игорь Колосов, Татьяна Полонская, Алексей Исполатов
Описание: Владелец сети ночных клубов Олег Баринов по пути на работу заезжает в районную библиотеку, чтобы отдать ненужные книги, которых дома у него накопилось много, а выбрасывать их на помойку ему не позволяет воспитание. В библиотеке он знакомится с Аллой — невзрачной, незаметной девушкой-библиотекарем, которая сначала не производит на него ни малейшего впечатления. Ему не до Аллы: у Баринова масса проблем — одна из городских банд настаивают на том, чтобы в клубах Баринова торговали наркотиками. Баринов не соглашается, бандиты угрожают его партнеру и тот выходит из бизнеса. Бандиты подставляют Баринова, милиция находит в его кабинете наркотики и деньги, Баринов арестован. Через сутки его неожиданно освобождают, привозят к бандитам и те сообщают, что он выпущен под залог, который внесли бандиты, и дело Баринова теперь в их руках.Бандиты требуют, чтобы он переоформил все клубы на имя лидера бандитской группировки — если он не захотел по-хорошему участвовать из преступном бизнесе — то теперь ему предстоит лишиться всего. В случае отказа Баринов вернется обратно в тюрьму, из которой уже не выйдет никогда — ибо следователь, ведущий его дело, тоже работает на бандитов. Баринов вынужден отдать свой бизнес бандитам. Теперь, оказавшись без работы, он вдруг вспоминает о таинственной девушке-библиотекаре и приглашает почти незнакомую ему девушку на ужин. С этого момента в жизни Баринова всё меняется.
Качество: SATRip
Формат: AVI
Видео кодек: XviD
Аудио кодек: МР3
Видео: 688x368 (1.87:1), 25 fps, XviD build 73 ~1020 kbps avg, 0.16 bit/pixel
Аудио: 48 kHz, MPEG Layer 3, 2 ch, ~128.00 kbps avg

Медиаинфо

General
Complete name : E:\004 Мои раздачи\Как пройти в библиотеку 745\kak_proiti_v_biblioteku_745_by_bm11.avi
Format : AVI
Format/Info : Audio Video Interleave
File size : 745 MiB
Duration : 1h 29mn
Overall bit rate : 1 159 Kbps
Director : bm11
Writing application : VirtualDubMod 1.5.10.3 | www.virtualdub-fr.org || (build 2550/release)
Video
ID : 0
Format : MPEG-4 Visual
Format profile : Advanced Simple@L5
Format settings, BVOP : 1
Format settings, QPel : No
Format settings, GMC : No warppoints
Format settings, Matrix : Custom
Codec ID : XVID
Codec ID/Hint : XviD
Duration : 1h 29mn
Bit rate : 1 021 Kbps
Width : 688 pixels
Height : 368 pixels
Display aspect ratio : 1.85:1
Frame rate : 25.000 fps
Color space : YUV
Chroma subsampling : 4:2:0
Bit depth : 8 bits
Scan type : Progressive
Compression mode : Lossy
Bits/(Pixel*Frame) : 0.161
Stream size : 656 MiB (88%)
Writing library : XviD 73
Audio
ID : 1
Format : MPEG Audio
Format version : Version 1
Format profile : Layer 3
Codec ID : 55
Codec ID/Hint : MP3
Duration : 1h 29mn
Bit rate mode : Constant
Bit rate : 128 Kbps
Channel(s) : 2 channels
Sampling rate : 48.0 KHz
Compression mode : Lossy
Stream size : 82.3 MiB (11%)
Alignment : Aligned on interleaves
Interleave, duration : 40 ms (1.00 video frame)
Interleave, preload duratio : 504 ms
Writing library : LAME3.99r
Encoding settings : -m s -V 4 -q 2 -lowpass 17 -b 128
[cybertorrent.net].t1871.torrent 
Торрент: Зарегистрирован [ 2019-04-09 15:46 ] · 6F2ABB1BB6865C4315B83651DD5495E01FAC6240

Скачать .torrent

Скачать

15 KB

Статус: проверено
Скачан: 0 раз
Размер: 745 MB
terms.php
Показать сообщения:    

Текущее время: 15-Дек 11:45

Часовой пояс: UTC ± 0



Вы не можете начинать темы
Вы не можете отвечать на сообщения
Вы не можете редактировать свои сообщения
Вы не можете удалять свои сообщения
Вы не можете голосовать в опросах
Вы не можете прикреплять файлы к сообщениям
Вы можете скачивать файлы