Статистика раздачи
Размер:  1,46 GB   |    Зарегистрирован:  7 месяцев 7 дней   |    Скачан:  0 раз

Полного источника не было: 1 месяц 4 дня

 
     
 
 

Гость ®

Пол:
Не указан

Как пройти в библиотеку?
Год выпуска: 2011
Жанр: криминальный фильм, мелодрама
Продолжительность: 01:29:51.879 (134797 frames)
Субтитры: нет
Режиссер: Евгений Малков
В ролях: Тарас Бибич, Татьяна Черкасова, Никита Емшанов, Людмила Ширяева, Евгений Сиротин, Ромуальд Макаренко, Валерий Дегтярь, Александр Карпухов, Роман Жилкин, Олег Жилин, Сергей Евсеев, Михаил Богданов, Константин Бараев, Игорь Колосов, Татьяна Полонская, Алексей Исполатов
Описание: Владелец сети ночных клубов Олег Баринов по пути на работу заезжает в районную библиотеку, чтобы отдать ненужные книги, которых дома у него накопилось много, а выбрасывать их на помойку ему не позволяет воспитание. В библиотеке он знакомится с Аллой — невзрачной, незаметной девушкой-библиотекарем, которая сначала не производит на него ни малейшего впечатления. Ему не до Аллы: у Баринова масса проблем — одна из городских банд настаивают на том, чтобы в клубах Баринова торговали наркотиками. Баринов не соглашается, бандиты угрожают его партнеру и тот выходит из бизнеса. Бандиты подставляют Баринова, милиция находит в его кабинете наркотики и деньги, Баринов арестован. Через сутки его неожиданно освобождают, привозят к бандитам и те сообщают, что он выпущен под залог, который внесли бандиты, и дело Баринова теперь в их руках.Бандиты требуют, чтобы он переоформил все клубы на имя лидера бандитской группировки — если он не захотел по-хорошему участвовать из преступном бизнесе — то теперь ему предстоит лишиться всего. В случае отказа Баринов вернется обратно в тюрьму, из которой уже не выйдет никогда — ибо следователь, ведущий его дело, тоже работает на бандитов. Баринов вынужден отдать свой бизнес бандитам. Теперь, оказавшись без работы, он вдруг вспоминает о таинственной девушке-библиотекаре и приглашает почти незнакомую ему девушку на ужин. С этого момента в жизни Баринова всё меняется.
Качество: SATRip
Формат: AVI
Видео кодек: XviD
Аудио кодек: АС3
Видео: 720x384 (1.88:1), 25 fps, XviD build 73 ~2117 kbps avg, 0.31 bit/pixel
Аудио: 48 kHz, AC3 Dolby Digital, 2/0 (L,R) ch, ~192.00 kbps avg

Медиаинфо

General
Complete name : E:\004 Мои раздачи\Как пройти в библиотеку 1,46\kak_proiti_v_biblioteku_1.46_by_bm11.avi
Format : AVI
Format/Info : Audio Video Interleave
File size : 1.46 GiB
Duration : 1h 29mn
Overall bit rate : 2 319 Kbps
Director : bm11
Writing application : VirtualDubMod 1.5.10.3 | www.virtualdub-fr.org || (build 2550/release)
Video
ID : 0
Format : MPEG-4 Visual
Format profile : Advanced Simple@L5
Format settings, BVOP : 1
Format settings, QPel : No
Format settings, GMC : No warppoints
Format settings, Matrix : Custom
Codec ID : XVID
Codec ID/Hint : XviD
Duration : 1h 29mn
Bit rate : 2 117 Kbps
Width : 720 pixels
Height : 384 pixels
Display aspect ratio : 1.85:1
Frame rate : 25.000 fps
Color space : YUV
Chroma subsampling : 4:2:0
Bit depth : 8 bits
Scan type : Progressive
Compression mode : Lossy
Bits/(Pixel*Frame) : 0.306
Stream size : 1.33 GiB (91%)
Writing library : XviD 73
Audio
ID : 1
Format : AC-3
Format/Info : Audio Coding 3
Mode extension : CM (complete main)
Format settings, Endianness : Big
Codec ID : 2000
Duration : 1h 29mn
Bit rate mode : Constant
Bit rate : 192 Kbps
Channel(s) : 2 channels
Channel positions : Front: L R
Sampling rate : 48.0 KHz
Frame rate : 31.250 fps (1536 spf)
Compression mode : Lossy
Stream size : 123 MiB (8%)
Alignment : Split accross interleaves
Interleave, duration : 40 ms (1.00 video frame)
Interleave, preload duratio : 500 ms
[cybertorrent.net].t1870.torrent 
Торрент: Зарегистрирован [ 2019-04-09 15:46 ] · D5EBA28127971A5F9224459E30B261319A018B89

Скачать .torrent

Скачать

15 KB

Статус: проверено
Скачан: 0 раз
Размер: 1,46 GB
terms.php
Показать сообщения:    

Текущее время: 17-Ноя 06:06

Часовой пояс: UTC ± 0



Вы не можете начинать темы
Вы не можете отвечать на сообщения
Вы не можете редактировать свои сообщения
Вы не можете удалять свои сообщения
Вы не можете голосовать в опросах
Вы не можете прикреплять файлы к сообщениям
Вы можете скачивать файлы