Статистика раздачи
Размер:  1,46 GB   |    Зарегистрирован:  7 месяцев 8 дней   |    Скачан:  0 раз

Полного источника не было: Никогда

 
     
 
 

Гость ®

Пол:
Не указан

Сенсор
Жанр: триллер
Год выпуска: 2019
Продолжительность: 01:32:41
Режиссёр: Андрей Загидуллин
В ролях: Евгений Михеев, Марина Курочка, Олег Васильков, Александр Мохов

Описание: Максим обладает не очень приятной способностью — он чувствует боль других людей как свою собственную. С такой особенностью Макс вырос замкнутым, одиноким, стеснительным парнем. Единственная его радость — соседская девушка, Лена. Макс давно влюблен в нее, но все не решается подойти и познакомиться. В один из дней на Лену нападает жестокий маньяк. Макс, который в это время оказался рядом, хочет прийти на помощь, но не может — его перекрывает от боли, которую маньяк причиняет Лене. Единственное, что у Макса получается сделать, — вызвать полицию. Благодаря этому маньяк не успевает завершить начатое, и Лена остается жива. Но теперь она находится в больнице, сильно травмированная и напуганная. Макс решает найти маньяка с помощью своей способности — ведь он, словно радар, может почувствовать сильную боль, которую маньяк причиняет своим жертвам. Для поисков Макс объединяется с отставным следователем Савельевым. Несколько лет назад именно Савельев связал жестокие нападения на девушек в серию, но ему никто не поверил, и настырного Савельева с его одержимостью «несуществующими маньяками» выгнали из органов.

Кинопоиск
Sample
Качество видео: WEB-DLRip
Формат видео: AVI
Видео: 720x400 (1.80:1), 25 fps, XviD build 73 ~2052 kbps avg, 0.28 bit/pixel
Аудио: 48 kHz, AC3 Dolby Digital, 2/0 (L,R) ch, ~192 kbps

MediaInfo

General
Complete name : D:\Сенсор 2019 WEB-DLRip.avi
Format : AVI
Format/Info : Audio Video Interleave
File size : 1.46 GiB
Duration : 1 h 32 min
Overall bit rate : 2 255 kb/s
Writing application : VirtualDubMod 1.5.10.3 | www.virtualdub-fr.org || (build 2550/release)
Writing library : VirtualDubMod build 2550/release
Video
ID : 0
Format : MPEG-4 Visual
Format profile : Advanced Simple@L5
Format settings : BVOP1
Format settings, BVOP : 1
Format settings, QPel : No
Format settings, GMC : No warppoints
Format settings, Matrix : Default (MPEG)
Codec ID : XVID
Codec ID/Hint : XviD
Duration : 1 h 32 min
Bit rate : 2 053 kb/s
Width : 720 pixels
Height : 400 pixels
Display aspect ratio : 16:9
Frame rate : 25.000 FPS
Color space : YUV
Chroma subsampling : 4:2:0
Bit depth : 8 bits
Scan type : Progressive
Compression mode : Lossy
Bits/(Pixel*Frame) : 0.285
Stream size : 1.33 GiB (91%)
Writing library : XviD 73
Audio
ID : 1
Format : AC-3
Format/Info : Audio Coding 3
Codec ID : 2000
Duration : 1 h 32 min
Bit rate mode : Constant
Bit rate : 192 kb/s
Channel(s) : 2 channels
Channel positions : Front: L R
Sampling rate : 48.0 kHz
Frame rate : 31.250 FPS (1536 SPF)
Bit depth : 16 bits
Compression mode : Lossy
Stream size : 127 MiB (9%)
Alignment : Split accross interleaves
Interleave, duration : 40 ms (1.00 video frame)
Interleave, preload duratio : 500 ms
Service kind : Complete Main

Скриншоты



[cybertorrent.net].t1867.torrent 
Торрент: Зарегистрирован [ 2019-04-09 15:46 ] · D33D2F7CC37ABC497530579CA436BC943E6B379D

Скачать .torrent

Скачать

15 KB

Статус: проверено
Скачан: 0 раз
Размер: 1,46 GB
terms.php
Показать сообщения:    

Текущее время: 17-Ноя 17:43

Часовой пояс: UTC ± 0



Вы не можете начинать темы
Вы не можете отвечать на сообщения
Вы не можете редактировать свои сообщения
Вы не можете удалять свои сообщения
Вы не можете голосовать в опросах
Вы не можете прикреплять файлы к сообщениям
Вы можете скачивать файлы