Статистика раздачи
Размер:  1,88 GB   |    Зарегистрирован:  7 месяцев 4 дня   |    Скачан:  0 раз

Полного источника не было: Никогда

 
     
 
 

Гость ®

Пол:
Не указан

Комендантский час / Curfew Год выпуска: 2019
Страна: Великобритания
Жанр: фантастика, боевик, триллер, драма.
Продолжительность: ~00:50:00
Перевод: Профессиональный (многоголосый закадровый) LostFilm
Режиссёр: Колм МакКарти, Кристофер Смит
В ролях: Шон Бин, Малачи Кирби, Эдриан Лестер, Фиби Фокс, Роберт Гленистер, Эйми-Ффион Эдвардс, Роуз Уильямс, Элайджа Роуэн, Гас Хан, Адам Броди, Харриет Уолтер, Миранда Ричардсон, Майкл Бин
Описание: Когда на землю опускается тьма, люди вынуждены скрываться по домам, потому что на улице действует комендантский час. Он призван оградить жителей от вируса, поразившего мир, но кое-кто считает, что такие ограничения — слишком большая цена. Теперь 25 команд вынуждены соперничать друг с другом в смертельной уличной гонке, приз в которой — это свобода.

Качество: HDTVRip
Формат: AVI
Видео: XviD, 720x304, 25 fps, ~ 1600 kbps
Аудио 1: 48 kHz, AC3 2 ch, ~192 kbps|LostFilm|
Аудио 2: 48 kHz, AC3 2 ch, ~192 kbps
Субтитры: Нет
Реклама: Отсутствует
Предыдущие и альтернативные раздачи

MediaInfo

Format : AVI
Format/Info : Audio Video Interleave
File size : 663 MiB
Duration : 46mn 24s
Overall bit rate : 1 998 Kbps
Movie name : Комендантский час 1х01: Эпизод 1
Director : Бёдвар (HDTVRip)
Writing application : VirtualDubModRus 1.5.10.2 (build 2542/release)
Comment : 07.04.2019
Video
ID : 0
Format : MPEG-4 Visual
Format profile : Advanced Simple@L5
Format settings, BVOP : 1
Format settings, QPel : No
Format settings, GMC : No warppoints
Format settings, Matrix : Default (MPEG)
Codec ID : XVID
Codec ID/Hint : XviD
Duration : 46mn 24s
Bit rate : 1 600 Kbps
Width : 720 pixels
Height : 304 pixels
Display aspect ratio : 2.35:1
Frame rate : 25.000 fps
Color space : YUV
Chroma subsampling : 4:2:0
Bit depth : 8 bits
Scan type : Progressive
Compression mode : Lossy
Bits/(Pixel*Frame) : 0.292
Stream size : 531 MiB (80%)
Writing library : XviD 67
Audio #1
ID : 1
Format : AC-3
Format/Info : Audio Coding 3
Mode extension : CM (complete main)
Format settings, Endianness : Big
Codec ID : 2000
Duration : 46mn 23s
Bit rate mode : Constant
Bit rate : 192 Kbps
Channel(s) : 2 channels
Channel positions : Front: L R
Sampling rate : 48.0 KHz
Frame rate : 31.250 fps (1536 spf)
Compression mode : Lossy
Stream size : 63.7 MiB (10%)
Alignment : Split accross interleaves
Interleave, duration : 40 ms (1.00 video frame)
Interleave, preload duratio : 500 ms
Audio #2
ID : 2
Format : AC-3
Format/Info : Audio Coding 3
Mode extension : CM (complete main)
Format settings, Endianness : Big
Codec ID : 2000
Duration : 46mn 24s
Bit rate mode : Constant
Bit rate : 192 Kbps
Channel(s) : 2 channels
Channel positions : Front: L R
Sampling rate : 48.0 KHz
Frame rate : 31.250 fps (1536 spf)
Compression mode : Lossy
Stream size : 63.7 MiB (10%)
Alignment : Split accross interleaves
Interleave, duration : 40 ms (1.00 video frame)
Interleave, preload duratio : 500 ms

Скриншоты

Внимание! Раздача ведётся путём добавления новых серий

Внимание! Раздача ведётся путём добавления новых серий; при каждом добавлении создаётся новый торрент. Чтобы начать докачку новой серии,пользователям необходимо сделать следующее:
(1) остановить скачивание,
(2) удалить старый торрент у себя из клиента (старые серии удалять не надо),
(3) скачать новый торрент и запустить его у себя в клиенте вместо старого, при этом указать клиенту путь в старую папку куда и должнопроисходить скачивание новых серий.
Ваш клиент при этом должен произвести хеширование (проверку) старой папки (если не производит сам - помогите ему сделать это), и будет докачивать только те серии
которых у вас ещё нет. Старые серии при этом не удаляются, а продолжают раздаваться!
Eсли вы уже удалили старые серии, то предотвратить повторную закачку старых серий можно, отжав галочку в соответствующих местах при запуске нового торрента.
По возможности, желательно не удалять старые серии как можно дольше чтобы релизёр не столько продолжал раздавать старые серии, а смог сконцентрироваться на новых.
Релиз группы:
[cybertorrent.net].t1856.torrent 
Торрент: Зарегистрирован [ 2019-04-08 17:20 ] · 6938DED0637BCD483B52E2744E7A168A04B65CF1

Скачать .torrent

Скачать

20 KB

Статус: проверено
Скачан: 0 раз
Размер: 1,88 GB
terms.php
Показать сообщения:    

Текущее время: 13-Ноя 15:06

Часовой пояс: UTC ± 0



Вы не можете начинать темы
Вы не можете отвечать на сообщения
Вы не можете редактировать свои сообщения
Вы не можете удалять свои сообщения
Вы не можете голосовать в опросах
Вы не можете прикреплять файлы к сообщениям
Вы можете скачивать файлы