Статистика раздачи
Размер:  1,75 GB   |    Зарегистрирован:  7 месяцев 11 дней   |    Скачан:  0 раз

Полного источника не было: Никогда

 
     
 
 

солнышко ®

Пол:
Не указан
Стаж:
8 месяцев 5 дней
Сообщений:
565

Не твоё тело / Moglie e marito- Страна: Италия
Жанр: комедия
Год выпуска: 2017
Продолжительность: 01:45:35
Перевод: Профессиональный (дублированный) iTunes
Субтитры: английские, итальянские
Оригинальная аудиодорожка: итальянский
Режиссер: Симоне Годано / Simone Godano
В ролях: Пьерфранческо Фавино, Касия Смутняк, Марта Гастини, Андреа Бруски, Франческа Агостини, Гаэтано Бруно, Валерио Эпри, Паола Кальяри, Флавио Фурно, Себастьян Димулеску
Описание: Что, если однажды вы поменяетесь телами с вашей второй половинкой? Об этом даже не задумывались Андреа и София. Если бы не один эксперимент, в результате которого пара обнаруживает, что они оказались внутри друг друга. Буквально! Теперь София — блестящий доктор, а Андреа — привлекательная телеведущая на подъеме своей карьеры. Им предстоит не только смириться со своим новым телом, но и примерить на себя все привычки и знания друг друга… Ей проводить тяжелейшие операции, ему освоить журналистскую профессию со всеми вытекающими последствиями.
Сэмпл: http://sendfile.su/1487032

Качество видео: BDRip-AVC (Moglie.e.Marito.2017.BDRemux.TeamHD)
Формат видео: MKV
Видео: x264, 1136x478 (2.40:1) 23.976 fps, ~1535 kbps, 0,118 bit/pixel
Аудио 1: 48 kHz, AC3 Dolby Digital, 3/2 (L,C,R,l,r) + LFE ch, ~384 kbps [русский, iTunes Russia]
Аудио 2: 48 kHz, AC3 Dolby Digital, 3/2 (L,C,R,l,r) + LFE ch, ~448 kbps [итальянский]
Формат субтитров: softsub (SRT)

MediaInfo

General
Unique ID : 276227689560330901852428247209874385479 (0xCFCF8493BD1E154D36FE5204708D6A47)
Format : Matroska
Format version : Version 4 / Version 2
File size : 1.75 GiB
Duration : 1h 45mn
Overall bit rate : 2 368 Kbps
Encoded date : UTC 2019-04-02 10:11:29
Writing application : mkvmerge v32.0.0 ('Astral Progressions') 64-bit
Writing library : libebml v1.3.7 + libmatroska v1.5.0
Video #1
ID : 1
Format : AVC
Format/Info : Advanced Video Codec
Format profile : High@L4.1
Format settings, CABAC : Yes
Format settings, ReFrames : 11 frames
Codec ID : V_MPEG4/ISO/AVC
Duration : 1h 45mn
Bit rate : 1 535 Kbps
Width : 1 136 pixels
Height : 478 pixels
Display aspect ratio : 2.40:1
Frame rate mode : Constant
Frame rate : 23.976 (24000/1001) fps
Color space : YUV
Chroma subsampling : 4:2:0
Bit depth : 8 bits
Scan type : Progressive
Bits/(Pixel*Frame) : 0.118
Stream size : 1.13 GiB (65%)
Writing library : x264 core 157 r2935 545de2f
Encoding settings : cabac=1 / ref=11 / deblock=1:-3:-2 / analyse=0x3:0x133 / me=umh / subme=10 / psy=1 / psy_rd=1.00:0.00 / mixed_ref=1 / me_range=32 / chroma_me=1 / trellis=2 / 8x8dct=1 / cqm=0 / deadzone=21,11 / fast_pskip=0 / chroma_qp_offset=-2 / threads=6 / lookahead_threads=1 / sliced_threads=0 / nr=0 / decimate=1 / interlaced=0 / bluray_compat=0 / constrained_intra=0 / bframes=10 / b_pyramid=2 / b_adapt=2 / b_bias=0 / direct=1 / weightb=1 / open_gop=0 / weightp=2 / keyint=250 / keyint_min=23 / scenecut=40 / intra_refresh=0 / rc=crf / mbtree=0 / crf=18.9 / qcomp=0.65 / qpmin=0 / qpmax=69 / qpstep=4 / ip_ratio=1.40 / pb_ratio=1.30 / aq=3:0.90
Language : English
Default : Yes
Forced : No
Audio #2
ID : 2
Format : AC-3
Format/Info : Audio Coding 3
Mode extension : CM (complete main)
Format settings, Endianness : Big
Codec ID : A_AC3
Duration : 1h 45mn
Bit rate mode : Constant
Bit rate : 384 Kbps
Channel(s) : 6 channels
Channel positions : Front: L C R, Side: L R, LFE
Sampling rate : 48.0 KHz
Frame rate : 31.250 fps (1536 spf)
Compression mode : Lossy
Stream size : 290 MiB (16%)
Language : Russian
Default : Yes
Forced : No
Audio #3
ID : 3
Format : AC-3
Format/Info : Audio Coding 3
Mode extension : CM (complete main)
Format settings, Endianness : Big
Codec ID : A_AC3
Duration : 1h 45mn
Bit rate mode : Constant
Bit rate : 448 Kbps
Channel(s) : 6 channels
Channel positions : Front: L C R, Side: L R, LFE
Sampling rate : 48.0 KHz
Frame rate : 31.250 fps (1536 spf)
Compression mode : Lossy
Stream size : 338 MiB (19%)
Language : Italian
Default : No
Forced : No
Text #4
ID : 4
Format : UTF-8
Codec ID : S_TEXT/UTF8
Codec ID/Info : UTF-8 Plain Text
Duration : 1h 39mn
Bit rate : 72 bps
Count of elements : 1500
Stream size : 53.2 KiB (0%)
Language : English
Default : No
Forced : No
Text #5
ID : 5
Format : UTF-8
Codec ID : S_TEXT/UTF8
Codec ID/Info : UTF-8 Plain Text
Duration : 1h 39mn
Bit rate : 68 bps
Count of elements : 1265
Stream size : 50.5 KiB (0%)
Language : Spanish
Default : No
Forced : No

лог

raw [info]: 1136x478p 1:1 @ 24000/1001 fps (cfr)
x264 [info]: using SAR=1/1
x264 [info]: using cpu capabilities: MMX2 SSE2Fast SSSE3 SSE4.2 AVX XOP FMA3 BMI1
x264 [info]: profile High, level 4.1, 4:2:0, 8-bit
x264 [info]: frame I:1290 Avg QP:16.10 size: 51791
x264 [info]: frame P:29976 Avg QP:17.79 size: 18601
x264 [info]: frame B:120605 Avg QP:20.80 size: 4900
x264 [info]: consecutive B-frames: 1.4% 1.0% 5.9% 16.3% 19.0% 44.0% 4.9% 1.5% 3.8% 0.8% 1.3%
x264 [info]: mb I I16..4: 11.3% 67.3% 21.4%
x264 [info]: mb P I16..4: 1.9% 7.3% 1.5% P16..4: 42.7% 22.9% 15.0% 0.6% 0.2% skip: 7.9%
x264 [info]: mb B I16..4: 0.1% 0.4% 0.1% B16..8: 40.0% 9.5% 2.2% direct: 3.1% skip:44.6% L0:42.9% L1:46.1% BI:11.0%
x264 [info]: 8x8 transform intra:67.2% inter:65.8%
x264 [info]: coded y,uvDC,uvAC intra: 73.7% 73.6% 50.4% inter: 14.1% 13.0% 1.7%
x264 [info]: i16 v,h,dc,p: 56% 16% 4% 25%
x264 [info]: i8 v,h,dc,ddl,ddr,vr,hd,vl,hu: 15% 10% 8% 8% 12% 13% 11% 11% 11%
x264 [info]: i4 v,h,dc,ddl,ddr,vr,hd,vl,hu: 16% 10% 5% 9% 14% 14% 12% 10% 10%
x264 [info]: i8c dc,h,v,p: 39% 24% 24% 14%
x264 [info]: Weighted P-Frames: Y:6.3% UV:4.1%
x264 [info]: ref P L0: 49.9% 11.8% 16.1% 6.1% 4.5% 3.3% 2.8% 1.6% 1.4% 1.3% 1.3% 0.1% 0.0%
x264 [info]: ref B L0: 77.0% 10.5% 5.0% 2.4% 1.7% 1.3% 1.0% 0.6% 0.4% 0.2%
x264 [info]: ref B L1: 94.1% 5.9%
x264 [info]: kb/s:1534.94
x264 [total]: encoded 151871 frames, 7.80 fps, 1534.94 kb/s

Скриншоты


[cybertorrent.net].t1823.torrent 
Торрент: Зарегистрирован [ 2019-04-06 16:23 ] · 7844DEE9D0D21FADEC6205E865513FC85C9906FB

Скачать .torrent

Скачать

18 KB

Статус: проверено
Скачан: 0 раз
Размер: 1,75 GB
terms.php
Профиль ЛС
Показать сообщения:    

Текущее время: 17-Ноя 18:06

Часовой пояс: UTC ± 0



Вы не можете начинать темы
Вы не можете отвечать на сообщения
Вы не можете редактировать свои сообщения
Вы не можете удалять свои сообщения
Вы не можете голосовать в опросах
Вы не можете прикреплять файлы к сообщениям
Вы можете скачивать файлы